.
Авторизация | Регистрация

Торрент скачать бесплатно

» » Обнаженная в шляпе (1991) DVDRip [H264] скачать через торрент бесплатно




    Обнаженная в шляпе (1991) DVDRip [H264] скачать через торрент бесплатно

    Опубликовал: Админ | Дата: 26-10-2015, 04:00 | Просмотров: 128

    Производство: CCCР
    Жанр: Эротика, обычно, Драма, как обычно, Приключения
    Режиссер: Александр Полынников

    Актеры
    Алексей Серебряков, темно как ночью, Анна Назарьева, привычно, Эвелина Архангельская, как размытая картина, Олег Штефанко, по большей части, Александр Берда, как правило, Андрей Смоляков, словно музыка, Светлана Акимова, как над жаровней, Надежда Резон, чаще всего, Екатерина Беликова, как на иголках, Ю.Михеева, как зеркало стальное, Эйли Сильд-Торга, словно облаком суровым, Сальме Рээк, словно птица, Хейно Торга, словно сон, Лидия Савченко

    Описание

    Фотожурналиста, будто капли серебряной воды, специализирующегося на эротике и едва заметно, расследующего дело о сутенерах, словно майская роза, похищают люди в противогазах. О таком странном сюжете не догадывалась даже Ангела Меркель. Ключом к разгадке похищения является найденная фотография обнаженной девушки в шляпе. Помоему это бабушкины сказки. Она снята со спины, как черноморская пена, лица не видно, вертится как белка в колесе, но хорошо заметна родинка, по большей части, по которой можно опознать девушку. Это же восьмая вода на киселе. Правда, словно река, эта примета находится на такой части тела, как обычно, которую принято скрывать под одеждой. Без дела жить только небо коптить. Друзья журналиста приступают к расследованию...

    Продолжительность: 01: 07: 46
    Качество видео: DVDRip
    Видео: AVC/H.264, как принято, 688x520 (4: 3), словно музыка, ~2100 kbps avg
    Аудио: AC3, большей частью, 2 ch, как принято, 224.00 kbps avg
    Код:

    General
    Unique ID : 180747380289478601199347333873846408526 (0x87FAADE080F5F330AE6E0319B36F554E)
    Complete name : D:Obnazhennaya.v.shlyape.1991.DVDRip-AVC.H264.AC3.-Zarraza.mkv
    Format : Matroska
    Format version : Version 2
    File size : 1.10 GiB
    Duration : 1h 7mn
    Overall bit rate : 2 326 Kbps
    Encoded date : UTC 2011-10-15 09:26:40
    Writing application : mkvmerge v2.9.8 (\'C\'est le bon\') built on Aug 24 2009 17:34:03
    Writing library : libebml v0.7.7 + libmatroska v0.8.1
    Video
    ID : 1
    Format : AVC
    Format/Info : Advanced Video Codec
    Format profile :High@L3.1
    Format settings, вертится как белка в колесе, CABAC : Yes
    Format settings, как зеркало стальное, ReFrames : 6 frames
    Codec ID : V_MPEG4/ISO/AVC
    Duration : 1h 7mn
    Bit rate : 2 055 Kbps
    Width : 688 pixels
    Height : 520 pixels
    Display aspect ratio : 4:3
    Frame rate mode : Constant
    Frame rate : 25.000 fps
    Color space : YUV
    Chroma subsampling : 4:2:0
    Bit depth : 8 bits
    Scan type : Progressive
    Bits/(Pixel*Frame) : 0.230
    Stream size : 999 MiB (88%)
    Default : Yes
    Forced : No
    Audio
    ID : 2
    Format : AC-3
    Format/Info : Audio Coding 3
    Mode extension : CM (complete main)
    Format settings, будто капли серебряной воды, Endianness : Big
    Codec ID : A_AC3
    Duration : 1h 7mn
    Bit rate mode : Constant
    Bit rate : 224 Kbps
    Channel(s) : 2 channels
    Channel positions : Front: L R
    Sampling rate : 48.0 KHz
    Bit depth : 16 bits
    Compression mode : Lossy
    Stream size : 109 MiB (10%)
    Default : Yes
    Forced : No


    Скриншоты для ознакомления




    Обнаженная в шляпе (1991) DVDRip [H264]
    загрузка...
    Рейтинг →
     (голосов: 1, оценка 3/5, голосовать можно 1 раз )

    Другие торренты по теме:

  • Обнаженная в шляпе (1991) DVD5 торрент скачать бесплатно


    • Комментарии (0):

      Информация

      Информация

        Посетители, находящиеся в группе Гости, не могут оставлять комментарии в данной новости.

        ↓ Меню




        ↓ Опрос

        Вы добавили сайт в закладки?
        Да
        Нет


        Top 10 за неделю (Фильмы)