.
Авторизация | Регистрация
Хочешь лучшие торренты? Добавь свой email!
Добавить

Торрент скачать бесплатно

» » Безумный Макс: Дорога ярости / Mad Max: Fury Road (2015) DVD9 [BD -> DVD] скачать через торрент бесплатно




    Безумный Макс: Дорога ярости / Mad Max: Fury Road (2015) DVD9 [BD -> DVD] скачать через торрент бесплатно

    Опубликовал: Админ | Дата: 26-10-2015, 04:00 | Просмотров: 66

    Производство: Австралия, США/Warner Bros., Village Roadshow Pictures, Kennedy Miller Productions
    Жанр: Боевик, фантастика, приключения
    Режиссер: Джордж Миллер
    Продюсеры: Джордж Миллер, Даг Митчелл, Брюс Берман

    Актеры
    Том Харди, Шарлиз Терон, Николас Холт, Хью Кияс-Бёрн, Райли Кио, Роузи Хантингтон-Уайтли, Зои Кравиц, Эбби Ли, Кортни Итон, Нэйтан Джонс

    Описание

    Преследуемый призраками беспокойного прошлого, Макс уверен, что лучший способ выжить — скитаться в одиночестве. Несмотря на это, он присоединяется к бунтарям, бегущим через всю пустыню на боевой фуре, под предводительством военачальника Фуриосы.
    Они пытаются сбежать из Цитадели, страдающей от тирании Несмертного Джо, у которого они забрали кое-что очень ценное. Разъярённый военачальник бросает все свои силы на погоню за мятежниками, ступая на дорогу войны — дорогу ярости.

    Дата мировой премьеры: 7 мая 2015
    Дата российской премьеры: 14 мая 2015, Каро-Премьер
    Дата выхода DVD/Blu-Ray релиза: 17 сентября 2015, CP Дистрибуция
    Продолжительность: 02: 00: 16
    Качество видео: DVD9 BD - DVD
    Перевод: Профессиональный (полное дублирование) + Профессиональный (многоголосый, закадровый) Омикрон + Авторский (одноголосый, закадровый) (Д. Есарев, А. Матвеев)
    Субтитры: Вшитые отключаемые
    Язык субтитров: Английский, русский
    Доп. материалы: Отсутствуют
    Видео: MPEG-2, 720x480@853x480 (NTSC 16: 9), ~7100 Кбит/сек
    Аудио 1: AC3 5.1, 448 Кбит/сек Английский - оригинал
    Аудио 2: AC3 5.1, 448 Кбит/сек Русский - дублированный
    Аудио 3: AC3 5.1, 448 Кбит/сек Русский - многоголосый закадровый, Омикрон
    Аудио 4: AC3 5.1, 448 Кбит/сек Русский - одноголосый закадровый, Д. О таком странном сюжете не догадывалась даже Ангела Меркель. Есарев
    Аудио 5: AC3 5.1, 448 Кбит/сек Русский - одноголосый закадровый, А. Матвеев
    Код:
    Title: Mad Max. Fury Road (2015) DVD9 [BD-DVD]
    Size: 7.84 Gb ( 8 224 332, 00 KBytes ) - DVD-9
    Enabled regions: 1, 2, 3, 4, 5, 6, 7, 8
    VTS_01 :
    Play Length: 02:00:16
    Video: NTSC 16:9 (720x480) VBR, Auto Letterboxed
    Audio:
    Russian (Dolby AC3, 6 ch)
    Russian (Dolby AC3, 6 ch)
    Russian (Dolby AC3, 6 ch)
    Russian (Dolby AC3, 6 ch)
    English (Dolby AC3, 6 ch)
    Subtitles:
    Russian
    English
    Russian
    * Menus Information *
    VIDEO_TS Menu
    Video:
    NTSC 16:9 (720x480) VBR
    Auto Letterboxed
    Audio:
    Not specified (Dolby AC3, 6 ch)
    Russian Language Unit :
    Title Menu
    VTS_01 Menu
    Video:
    NTSC 16:9 (720x480) VBR
    Auto Letterboxed
    Audio:
    Not specified (Dolby AC3, 2 ch)
    Russian Language Unit :
    Root Menu
    Audio Menu
    Chapter (PTT) Menu
    Код:
    Общее
    Полное имя : F:ВидеоMad Max. Fury Road (2015) DVD9 [BD-DVD]VIDEO_TSVTS_01_2.VOB
    Формат : MPEG-PS
    Размер файла : 1024 Мбайт
    Продолжительность : 14 м.
    Режим общего битрейта : Переменный
    Общий поток : 9567 Кбит/сек
    Видео
    Идентификатор : 224 (0xE0)
    Формат : MPEG Video
    Версия формата : Version 2
    Профиль формата : Main@Main
    Параметр BVOP формата : Да
    Параметр матрицы формата : Выборочная
    Параметр GOP формата : M=3, N=12
    Продолжительность : 14 м.
    Вид битрейта : Переменный
    Битрейт : 7137 Кбит/сек
    Максимальный битрейт : 7500 Кбит/сек
    Ширина : 720 пикселей
    Высота : 480 пикселей
    Соотношение сторон : 16:9
    Частота кадров : 23, 976 кадра/сек
    Стандарт вещания : NTSC
    Цветовое пространство : YUV
    Субдискретизация насыщенности : 4:2:0
    Битовая глубина : 8 бит
    Тип развёртки : Прогрессивная
    Порядок развёртки : 2:3 Pulldown
    Метод сжатия : С потерями
    Бит/(Пиксели*Кадры) : 0.861
    Временной код первого кадра : 00:15:43:25
    Оригинал временного кода : Group of pictures t_head
    GOP, открыто/закрыто : Открыто
    Размер потока : 764 Мбайт (75%)
    Аудио #1
    Идентификатор : 189 (0xBD)-128 (0x80)
    Формат : AC-3
    Формат/Информация : Audio Coding 3
    Расширение режима : CM (complete main)
    Параметр Endianness формата : Big
    Режим смешивания : DVD-Video
    Продолжительность : 14 м.
    Вид битрейта : Постоянный
    Битрейт : 448 Кбит/сек
    Каналы : 6 каналов
    Расположение каналов : Front: L C R, Side: L R, LFE
    Частота : 48, 0 КГц
    Битовая глубина : 16 бит
    Метод сжатия : С потерями
    Задержка видео : -348 мс.
    Размер потока : 48, 0 Мбайт (5%)
    Аудио #2
    Идентификатор : 189 (0xBD)-129 (0x81)
    Формат : AC-3
    Формат/Информация : Audio Coding 3
    Расширение режима : CM (complete main)
    Параметр Endianness формата : Big
    Режим смешивания : DVD-Video
    Продолжительность : 14 м.
    Вид битрейта : Постоянный
    Битрейт : 448 Кбит/сек
    Каналы : 6 каналов
    Расположение каналов : Front: L C R, Side: L R, LFE
    Частота : 48, 0 КГц
    Битовая глубина : 16 бит
    Метод сжатия : С потерями
    Задержка видео : -348 мс.
    Размер потока : 48, 0 Мбайт (5%)
    Аудио #3
    Идентификатор : 189 (0xBD)-130 (0x82)
    Формат : AC-3
    Формат/Информация : Audio Coding 3
    Расширение режима : CM (complete main)
    Параметр Endianness формата : Big
    Режим смешивания : DVD-Video
    Продолжительность : 14 м.
    Вид битрейта : Постоянный
    Битрейт : 448 Кбит/сек
    Каналы : 6 каналов
    Расположение каналов : Front: L C R, Side: L R, LFE
    Частота : 48, 0 КГц
    Битовая глубина : 16 бит
    Метод сжатия : С потерями
    Задержка видео : -348 мс.
    Размер потока : 47, 9 Мбайт (5%)
    Аудио #4
    Идентификатор : 189 (0xBD)-131 (0x83)
    Формат : AC-3
    Формат/Информация : Audio Coding 3
    Расширение режима : CM (complete main)
    Параметр Endianness формата : Big
    Режим смешивания : DVD-Video
    Продолжительность : 14 м.
    Вид битрейта : Постоянный
    Битрейт : 448 Кбит/сек
    Каналы : 6 каналов
    Расположение каналов : Front: L C R, Side: L R, LFE
    Частота : 48, 0 КГц
    Битовая глубина : 16 бит
    Метод сжатия : С потерями
    Задержка видео : -348 мс.
    Размер потока : 47, 9 Мбайт (5%)
    Аудио #5
    Идентификатор : 189 (0xBD)-132 (0x84)
    Формат : AC-3
    Формат/Информация : Audio Coding 3
    Расширение режима : CM (complete main)
    Параметр Endianness формата : Big
    Режим смешивания : DVD-Video
    Продолжительность : 14 м.
    Вид битрейта : Постоянный
    Битрейт : 448 Кбит/сек
    Каналы : 6 каналов
    Расположение каналов : Front: L C R, Side: L R, LFE
    Частота : 48, 0 КГц
    Битовая глубина : 16 бит
    Метод сжатия : С потерями
    Задержка видео : -348 мс.
    Размер потока : 47, 9 Мбайт (5%)
    Текст #1
    Идентификатор : 189 (0xBD)-32 (0x20)
    Формат : RLE
    Формат/Информация : Run-length encoding
    Режим смешивания : DVD-Video
    Задержка видео : 884 мс.
    Текст #2
    Идентификатор : 189 (0xBD)-33 (0x21)
    Формат : RLE
    Формат/Информация : Run-length encoding
    Режим смешивания : DVD-Video
    Задержка видео : 884 мс.
    Меню


    Скриншоты для ознакомления




    Онлайн видео Безумный Макс: Дорога ярости



    Безумный Макс: Дорога ярости/Mad Max: Fury Road (2015) DVD9 [BD -> DVD]
    загрузка...
    Рейтинг →
     (голосов: 1, оценка 5/5, голосовать можно 1 раз )

    Другие торренты по теме:

  • Безумный Макс: Дорога ярости / Mad Max: Fury Road (2015) WEBRip [H.264 / 720p-LQ] [Трейлер]
  • Безумный Макс: Дорога ярости / Mad Max: Fury Road (2015) WEBRip [1080p] [Трейлер] [EN]
  • Безумный Макс / Mad Max (2014) WEBRip [H.264 / 1080p-LQ] [Трейлер]
  • Безумный Макс: Дорога ярости / Mad Max: Fury Road (2015) DCPRip [2K] [Трейлер]
  • Безумный Макс: Дорога ярости / Mad Max: Fury Road (2015) WEBRip [1080p] [Трейлер #2] скачать через торрент бесплатно
  • Безумный Макс: Дорога ярости / Mad Max: Fury Road (2015) WEBRip [1080p] [Трейлер #3] скачать через торрент бесплатно
  • Tom Holkenborg aka Junkie XL - Безумный Макс: Дорога ярости / Mad Max: Fury Road (Original Motion Picture Soundtrack) (2015) Deluxe Version [AAC|WEB-DL|256 кб / с]<Soundtrack> скачать через торрент бесплатно
  • Трилогия Безумный Макс / Trilogy Mad Max (1979 / 1981 / 1985) BDRip [H.264] скачать через торрент бесплатно


    • Комментарии (0):

      Информация

      Информация

        Посетители, находящиеся в группе Гости, не могут оставлять комментарии в данной новости.

        ↓ Меню




        ↓ Опрос

        Вы добавили сайт в закладки?
        Да
        Нет


        Top 10 за месяц (Фильмы)