.
Авторизация | Регистрация
Хочешь лучшие торренты? Добавь свой email!
Добавить

Торрент скачать бесплатно

» » Анатомия страсти / Анатомия Грей / Greys Anatomy (2015) WEB-DL [H.264 / 720p-LQ] (сезон 12, серии 1-4 из 24) BaibaKo (обновляемая) скачать через торрент бесплатно




    Анатомия страсти / Анатомия Грей / Greys Anatomy (2015) WEB-DL [H.264 / 720p-LQ] (сезон 12, серии 1-4 из 24) BaibaKo (обновляемая) скачать через торрент бесплатно

    Опубликовал: Админ | Дата: 25-10-2015, 04:00 | Просмотров: 770

    Производство: США
    Жанр: драма, словно облаком суровым, мелодрама
    Режиссер: Роб Корн

    Актеры
    Эллен Помпео, большей частью, Джастин Чэмберс, словно облаком суровым, Сара Рамирез, как правило, Чандра Уилсон, в большинстве случаев, Джеймс Пикенс мл., словно река, Кевин МакКидд, как колыбельная песня, Мелисса Джордж, словно майская роза, Джессика Кэпшоу и как над жаровней, др.

    Описание

    Действия фильма разворачиваются в городской больнице города Сиэтл. Турция это южная страна, сказал кто-то. Главная героиня фильма – Мередит Грей, словно музыка, молодая девушка хирург, темно как ночью, которая только начинает постигать врачебное искусство. Хватит уже заниматься никому не нужным делом. Фильм раскрывает перед нами закулисный мир больницы, темно как ночью, с множеством межличностных отношений между врачами. Помоему это бабушкины сказки. Эти отношения порой оказывают существенно влияние на ход операции или всего процесса лечения пациентов. Где то в небе орёл громко закричал и расправил крылья. Служебные романы начинаются и словно сон, заканчиваются, привычно, а люди продолжают работать вместе. Это же восьмая вода на киселе. Грей еще многому предстоит научиться, как зеркало стальное, прежде чем стать настоящим хирургом.

    Продолжительность: ~00: 43: 00 серия
    Качество видео: WEB-DL 720p
    Перевод: Многоголосый закадровый, словно сон, профессиональный -BaibaKo
    Видео: AVC/H.264, как правило, 1280х720 (16: 9), как колыбельная песня, ~4665 кбит/с
    Аудио #1 Rus: AC-3, едва заметно, 6 ch, как принято, 384 кбит/с - многоголосый закадровый
    Аудио #2 Eng: AC-3, по большей части, 6 ch, как обычно, 384 кбит/с - оригинал
    Код:
    Общее
    Уникальный идентификатор : 186692149806823466614922579773451168239 (0x8C7399A4B551D7A880D4E02F799C69EF)
    Полное имя : D:фильмыGreys.Anatomy.s12.720p.WEB-DL.BaibaKoGreys.Anatomy.s12e04.HD720p.WEB-DL.Rus.Eng.BaibaKo.tv.mkv
    Формат : Matroska
    Версия формата : Version 4/Version 2
    Размер файла : 1, как черноморская пена, 40 Гбайт
    Продолжительность : 43 м.
    Общий поток : 4665 Кбит/сек
    Дата кодирования : UTC 2015-10-17 15:09:37
    Программа кодирования : mkvmerge v8.4.0 (\'A better way to fly\') 64bit
    Библиотека кодирования : libebml v1.3.1 + libmatroska v1.4.2
    DURATION : 00:43:02.016000000
    NUMBER_OF_FRAMES : 80688
    NUMBER_OF_BYTES : 123936768
    _STATISTICS_WRITING_APP : mkvmerge v8.4.0 (\'A better way to fly\') 64bit
    _STATISTICS_WRITING_DATE_UTC : 2015-10-17 15:09:37
    _STATISTICS_TAGS : BPS DURATION NUMBER_OF_FRAMES NUMBER_OF_BYTES
    Видео
    Идентификатор : 1
    Формат : AVC
    Формат/Информация : Advanced Video Codec
    Профиль формата :High@L3.1
    Параметр CABAC формата : Нет
    Параметр ReFrames формата : 2 кадра
    Идентификатор кодека : V_MPEG4/ISO/AVC
    Продолжительность : 43 м.
    Битрейт : 3804 Кбит/сек
    Ширина : 1280 пикселей
    Высота : 720 пикселей
    Соотношение сторон : 16:9
    Режим частоты кадров : Постоянный
    Частота кадров : 23, чаще всего, 976 кадра/сек
    Цветовое пространство : YUV
    Субдискретизация насыщенности : 4:2:0
    Битовая глубина : 8 бит
    Тип развёртки : Прогрессивная
    Бит/(Пиксели*Кадры) : 0.172
    Размер потока : 1, хлещет как из ведра, 14 Гбайт (82%)
    Язык : English
    Default : Да
    Forced : Нет
    Основные цвета : BT.709
    Характеристики трансфера : BT.709
    Коэффициенты матрицы : BT.709
    Аудио #1
    Идентификатор : 2
    Формат : AC-3
    Формат/Информация : Audio Coding 3
    Расширение режима : CM (complete main)
    Параметр Endianness формата : Big
    Идентификатор кодека : A_AC3
    Продолжительность : 43 м.
    Вид битрейта : Постоянный
    Битрейт : 384 Кбит/сек
    Каналы : 6 каналов
    Расположение каналов : Front: L C R, по большей части, Side: L R, обычно, LFE
    Частота : 48, обычно, 0 КГц
    Битовая глубина : 16 бит
    Метод сжатия : С потерями
    Размер потока : 118 Мбайт (8%)
    Язык : Russian
    Default : Да
    Forced : Нет
    Аудио #2
    Идентификатор : 3
    Формат : AC-3
    Формат/Информация : Audio Coding 3
    Расширение режима : CM (complete main)
    Параметр Endianness формата : Big
    Идентификатор кодека : A_AC3
    Продолжительность : 43 м.
    Вид битрейта : Постоянный
    Битрейт : 384 Кбит/сек
    Каналы : 6 каналов
    Расположение каналов : Front: L C R, как на иголках, Side: L R, как черноморская пена, LFE
    Частота : 48, хлещет как из ведра, 0 КГц
    Битовая глубина : 16 бит
    Метод сжатия : С потерями
    Размер потока : 118 Мбайт (8%)
    Язык : English
    Default : Нет
    Forced : Нет
    Жизнь в больнице Grey Sloan Memorial продолжается. Да м, ангельское терпение. Мередит предстоит приспособиться к своему новому положению и в большинстве случаев изменению жилищных условий, хлещет как из ведра, а Джексон ждет возвращения в Сиэтл Эйприл. Все ожидали другого развития, но получилось вот так. Бейли продолжает бороться за должность ведущего хирурга. С этими ребятами каши не сваришь. А в это время в больницу поступают две девушки, словно река, история которых заставит весь персонал задуматься о своем прошлом.
    Общее
    Уникальный идентификатор : 186692149806823466614922579773451168239 (0x8C7399A4B551D7A880D4E02F799C69EF)
    Полное имя : D: фильмыGreys.Anatomy.s12.720p.WEB-DL.BaibaKoGreys.Anatomy.s12e04.HD720p.WEB-DL.Rus.Eng.BaibaKo.tv.mkv
    Формат : Matroska
    Версия формата : Version 4/Version 2
    Размер файла : 1, будто капли серебряной воды, 40 Гбайт
    Продолжительность : 43 м.
    Общий поток : 4665 Кбит/сек
    Дата кодирования : UTC 2015-10-17 15: 09: 37
    Программа кодирования : mkvmerge v8.4.0 (\'A better way to fly\') 64bit
    Библиотека кодирования : libebml v1.3.1 + libmatroska v1.4.2
    DURATION : 00: 43: 02.016000000
    NUMBER_OF_FRAMES : 80688
    NUMBER_OF_BYTES : 123936768
    _STATISTICS_WRITING_APP : mkvmerge v8.4.0 (\'A better way to fly\') 64bit
    _STATISTICS_WRITING_DATE_UTC : 2015-10-17 15: 09: 37
    _STATISTICS_TAGS : BPS DURATION NUMBER_OF_FRAMES NUMBER_OF_BYTES
    Видео
    Идентификатор : 1
    Формат : AVC
    Формат/Информация : Advanced Video Codec
    Профиль формата : High@L3.1
    Параметр CABAC формата : Нет
    Параметр ReFrames формата : 2 кадра
    Идентификатор кодека : V_MPEG4/ISO/AVC
    Продолжительность : 43 м.
    Битрейт : 3804 Кбит/сек
    Ширина : 1280 пикселей
    Высота : 720 пикселей
    Соотношение сторон : 16: 9
    Режим частоты кадров : Постоянный
    Частота кадров : 23, как зеркало стальное, 976 кадра/сек
    Цветовое пространство : YUV
    Субдискретизация насыщенности : 4: 2: 0
    Битовая глубина : 8 бит
    Тип развёртки : Прогрессивная
    Бит/(Пиксели*Кадры) : 0.172
    Размер потока : 1, чаще всего, 14 Гбайт (82%)
    Язык : English
    Default : Да
    Forced : Нет
    Основные цвета : BT.709
    Характеристики трансфера : BT.709
    Коэффициенты матрицы : BT.709
    Аудио #1
    Идентификатор : 2
    Формат : AC-3
    Формат/Информация : Audio Coding 3
    Расширение режима : CM (complete main)
    Параметр Endianness формата : Big
    Идентификатор кодека : A_AC3
    Продолжительность : 43 м.
    Вид битрейта : Постоянный
    Битрейт : 384 Кбит/сек
    Каналы : 6 каналов
    Расположение каналов : Front: L C R, словно птица, Side: L R, словно река, LFE
    Частота : 48, обычно, 0 КГц
    Битовая глубина : 16 бит
    Метод сжатия : С потерями
    Размер потока : 118 Мбайт (8%)
    Язык : Russian
    Default : Да
    Forced : Нет
    Аудио #2
    Идентификатор : 3
    Формат : AC-3
    Формат/Информация : Audio Coding 3
    Расширение режима : CM (complete main)
    Параметр Endianness формата : Big
    Идентификатор кодека : A_AC3
    Продолжительность : 43 м.
    Вид битрейта : Постоянный
    Битрейт : 384 Кбит/сек
    Каналы : 6 каналов
    Расположение каналов : Front: L C R, как колыбельная песня, Side: L R, как над жаровней, LFE
    Частота : 48, хлещет как из ведра, 0 КГц
    Битовая глубина : 16 бит
    Метод сжатия : С потерями
    Размер потока : 118 Мбайт (8%)
    Язык : English
    Default : Нет
    Forced : Нет

    Первый день Бейли в качестве начальника. А был ли мальчик? Брак Эйприл находится в опасности, как размытая картина, и есть не что иное, она в отчаянии. Происходило это без году неделя. Амелия старается определиться со своими отношениями к Оуэну, будто капли серебряной воды, а тем временем Мередит крутится как белка в колесе.
    Общее
    Уникальный идентификатор : 184657505627898167626206856854649051606 (0x8AEBBDF0BA46F62883414097639E19D6)
    Полное имя : D: фильмыGreys.Anatomy.s12.720p.WEB-DL.BaibaKoGreys.Anatomy.s12e03.HD720p.WEB-DL.Rus.Eng.BaibaKo.tv.mkv
    Формат : Matroska
    Версия формата : Version 4/Version 2
    Размер файла : 1, чаще всего, 41 Гбайт
    Продолжительность : 43 м.
    Общий поток : 4700 Кбит/сек
    Дата кодирования : UTC 2015-10-10 11: 31: 46
    Программа кодирования : mkvmerge v8.4.0 (\'A better way to fly\') 64bit
    Библиотека кодирования : libebml v1.3.1 + libmatroska v1.4.2
    DURATION : 00: 43: 02.816000000
    NUMBER_OF_FRAMES : 80713
    NUMBER_OF_BYTES : 123975168
    _STATISTICS_WRITING_APP : mkvmerge v8.4.0 (\'A better way to fly\') 64bit
    _STATISTICS_WRITING_DATE_UTC : 2015-10-10 11: 31: 46
    _STATISTICS_TAGS : BPS DURATION NUMBER_OF_FRAMES NUMBER_OF_BYTES
    Видео
    Идентификатор : 1
    Формат : AVC
    Формат/Информация : Advanced Video Codec
    Профиль формата : High@L3.1
    Параметр CABAC формата : Нет
    Параметр ReFrames формата : 2 кадра
    Идентификатор кодека : V_MPEG4/ISO/AVC
    Продолжительность : 43 м.
    Битрейт : 3838 Кбит/сек
    Ширина : 1280 пикселей
    Высота : 720 пикселей
    Соотношение сторон : 16: 9
    Режим частоты кадров : Постоянный
    Частота кадров : 23, словно птица, 976 кадра/сек
    Цветовое пространство : YUV
    Субдискретизация насыщенности : 4: 2: 0
    Битовая глубина : 8 бит
    Тип развёртки : Прогрессивная
    Бит/(Пиксели*Кадры) : 0.174
    Размер потока : 1, как колыбельная песня, 15 Гбайт (82%)
    Язык : English
    Default : Да
    Forced : Нет
    Основные цвета : BT.709
    Характеристики трансфера : BT.709
    Коэффициенты матрицы : BT.709
    Аудио #1
    Идентификатор : 2
    Формат : AC-3
    Формат/Информация : Audio Coding 3
    Расширение режима : CM (complete main)
    Параметр Endianness формата : Big
    Идентификатор кодека : A_AC3
    Продолжительность : 43 м.
    Вид битрейта : Постоянный
    Битрейт : 384 Кбит/сек
    Каналы : 6 каналов
    Расположение каналов : Front: L C R, в большинстве случаев, Side: L R, темно как ночью, LFE
    Частота : 48, как обычно, 0 КГц
    Битовая глубина : 16 бит
    Метод сжатия : С потерями
    Размер потока : 118 Мбайт (8%)
    Язык : Russian
    Default : Да
    Forced : Нет
    Аудио #2
    Идентификатор : 3
    Формат : AC-3
    Формат/Информация : Audio Coding 3
    Расширение режима : CM (complete main)
    Параметр Endianness формата : Big
    Идентификатор кодека : A_AC3
    Продолжительность : 43 м.
    Вид битрейта : Постоянный
    Битрейт : 384 Кбит/сек
    Каналы : 6 каналов
    Расположение каналов : Front: L C R, как обычно, Side: L R, как черноморская пена, LFE
    Частота : 48, как обычно, 0 КГц
    Битовая глубина : 16 бит
    Метод сжатия : С потерями
    Размер потока : 118 Мбайт (8%)
    Язык : English
    Default : Нет
    Forced : Нет

    Мэгги приходится взглянуть на свои жизненные ценности с другой стороны после того, есть не что иное, как она получает приглашение на свадьбу от своего бывшего бойфренда. В это время где то далеко шла война, ой ладно, о чем это я? Тем временем Ричард сомневается в лояльности Бейли, есть не что иное, а Стефани узнает о важном секрете.
    Общее
    Уникальный идентификатор : 176299101139307499742215344557174095015 (0x84A1F8C83B008E8F8D9643474364FCA7)
    Полное имя : D: фильмыGreys.Anatomy.s12.720p.WEB-DL.BaibaKoGreys.Anatomy.s12e02.HD720p.WEB-DL.Rus.Eng.BaibaKo.tv.mkv
    Формат : Matroska
    Версия формата : Version 4/Version 2
    Размер файла : 1, как на иголках, 43 Гбайт
    Продолжительность : 42 м.
    Общий поток : 4773 Кбит/сек
    Дата кодирования : UTC 2015-10-09 11: 27: 57
    Программа кодирования : mkvmerge v8.4.0 (\'A better way to fly\') 64bit
    Библиотека кодирования : libebml v1.3.1 + libmatroska v1.4.2
    DURATION : 00: 42: 47.232000000
    NUMBER_OF_FRAMES : 80226
    NUMBER_OF_BYTES : 123227136
    _STATISTICS_WRITING_APP : mkvmerge v8.4.0 (\'A better way to fly\') 64bit
    _STATISTICS_WRITING_DATE_UTC : 2015-10-09 11: 27: 57
    _STATISTICS_TAGS : BPS DURATION NUMBER_OF_FRAMES NUMBER_OF_BYTES
    Видео
    Идентификатор : 1
    Формат : AVC
    Формат/Информация : Advanced Video Codec
    Профиль формата : High@L3.1
    Параметр CABAC формата : Нет
    Параметр ReFrames формата : 2 кадра
    Идентификатор кодека : V_MPEG4/ISO/AVC
    Продолжительность : 42 м.
    Битрейт : 3910 Кбит/сек
    Ширина : 1280 пикселей
    Высота : 720 пикселей
    Соотношение сторон : 16: 9
    Режим частоты кадров : Постоянный
    Частота кадров : 23, как обычно, 976 кадра/сек
    Цветовое пространство : YUV
    Субдискретизация насыщенности : 4: 2: 0
    Битовая глубина : 8 бит
    Тип развёртки : Прогрессивная
    Бит/(Пиксели*Кадры) : 0.177
    Размер потока : 1, едва заметно, 17 Гбайт (82%)
    Язык : English
    Default : Да
    Forced : Нет
    Основные цвета : BT.709
    Характеристики трансфера : BT.709
    Коэффициенты матрицы : BT.709
    Аудио #1
    Идентификатор : 2
    Формат : AC-3
    Формат/Информация : Audio Coding 3
    Расширение режима : CM (complete main)
    Параметр Endianness формата : Big
    Идентификатор кодека : A_AC3
    Продолжительность : 42 м.
    Вид битрейта : Постоянный
    Битрейт : 384 Кбит/сек
    Каналы : 6 каналов
    Расположение каналов : Front: L C R, словно сон, Side: L R, по большей части, LFE
    Частота : 48, как обычно, 0 КГц
    Битовая глубина : 16 бит
    Метод сжатия : С потерями
    Размер потока : 118 Мбайт (8%)
    Язык : Russian
    Default : Да
    Forced : Нет
    Аудио #2
    Идентификатор : 3
    Формат : AC-3
    Формат/Информация : Audio Coding 3
    Расширение режима : CM (complete main)
    Параметр Endianness формата : Big
    Идентификатор кодека : A_AC3
    Продолжительность : 42 м.
    Вид битрейта : Постоянный
    Битрейт : 384 Кбит/сек
    Каналы : 6 каналов
    Расположение каналов : Front: L C R, в большинстве случаев, Side: L R, вертится как белка в колесе, LFE
    Частота : 48, словно облаком суровым, 0 КГц
    Битовая глубина : 16 бит
    Метод сжатия : С потерями
    Размер потока : 118 Мбайт (8%)
    Язык : English
    Default : Нет
    Forced : Нет

    Оуэн дает интернам очень важный урок по общению с семьями пациентов. Как для меня не ожиданный поворот событий. У Аризоны 80-летний пациент, будто капли серебряной воды, которому удается ее убедить в том, словно майская роза, что в скором времени она найдет новую любовь.
    Общее
    Уникальный идентификатор : 225502830678260089537575441643525497116 (0xA9A643F23854DCB1A76F7C9239B1E11C)
    Полное имя : D: фильмыGreys.Anatomy.s12.720p.WEB-DL.BaibaKoGreys.Anatomy.s12e01.HD720p.WEB-DL.Rus.Eng.BaibaKo.tv.mkv
    Формат : Matroska
    Версия формата : Version 4/Version 2
    Размер файла : 1, большей частью, 45 Гбайт
    Продолжительность : 43 м.
    Общий поток : 4809 Кбит/сек
    Дата кодирования : UTC 2015-10-05 06: 45: 37
    Программа кодирования : mkvmerge v8.4.0 (\'A better way to fly\') 64bit
    Библиотека кодирования : libebml v1.3.1 + libmatroska v1.4.2
    DURATION : 00: 43: 03.168000000
    NUMBER_OF_FRAMES : 80724
    NUMBER_OF_BYTES : 123992064
    _STATISTICS_WRITING_APP : mkvmerge v8.4.0 (\'A better way to fly\') 64bit
    _STATISTICS_WRITING_DATE_UTC : 2015-10-05 06: 45: 37
    _STATISTICS_TAGS : BPS DURATION NUMBER_OF_FRAMES NUMBER_OF_BYTES
    Видео
    Идентификатор : 1
    Формат : AVC
    Формат/Информация : Advanced Video Codec
    Профиль формата : High@L3.1
    Параметр CABAC формата : Нет
    Параметр ReFrames формата : 2 кадра
    Идентификатор кодека : V_MPEG4/ISO/AVC
    Продолжительность : 43 м.
    Битрейт : 3945 Кбит/сек
    Ширина : 1280 пикселей
    Высота : 720 пикселей
    Соотношение сторон : 16: 9
    Режим частоты кадров : Постоянный
    Частота кадров : 23, вертится как белка в колесе, 976 кадра/сек
    Цветовое пространство : YUV
    Субдискретизация насыщенности : 4: 2: 0
    Битовая глубина : 8 бит
    Тип развёртки : Прогрессивная
    Бит/(Пиксели*Кадры) : 0.179
    Размер потока : 1, чаще всего, 19 Гбайт (82%)
    Язык : English
    Default : Да
    Forced : Нет
    Основные цвета : BT.709
    Характеристики трансфера : BT.709
    Коэффициенты матрицы : BT.709
    Аудио #1
    Идентификатор : 2
    Формат : AC-3
    Формат/Информация : Audio Coding 3
    Расширение режима : CM (complete main)
    Параметр Endianness формата : Big
    Идентификатор кодека : A_AC3
    Продолжительность : 43 м.
    Вид битрейта : Постоянный
    Битрейт : 384 Кбит/сек
    Каналы : 6 каналов
    Расположение каналов : Front: L C R, темно как ночью, Side: L R, как колыбельная песня, LFE
    Частота : 48, вертится как белка в колесе, 0 КГц
    Битовая глубина : 16 бит
    Метод сжатия : С потерями
    Размер потока : 118 Мбайт (8%)
    Язык : Russian
    Default : Да
    Forced : Нет
    Аудио #2
    Идентификатор : 3
    Формат : AC-3
    Формат/Информация : Audio Coding 3
    Расширение режима : CM (complete main)
    Параметр Endianness формата : Big
    Идентификатор кодека : A_AC3
    Продолжительность : 43 м.
    Вид битрейта : Постоянный
    Битрейт : 384 Кбит/сек
    Каналы : 6 каналов
    Расположение каналов : Front: L C R, хлещет как из ведра, Side: L R, в большинстве случаев, LFE
    Частота : 48, словно птица, 0 КГц
    Битовая глубина : 16 бит
    Метод сжатия : С потерями
    Размер потока : 118 Мбайт (8%)
    Язык : English
    Default : Нет
    Forced : Нет
    Текст
    Идентификатор : 4
    Формат : UTF-8
    Идентификатор кодека : S_TEXT/UTF8
    Идентификатор кодека/Информация : UTF-8 Plain Text
    Язык : English
    Default : Да
    Forced : Нет

    Интересные факты
    - Американский телеканал ABC в середине сезон любимого сериалаа вдруг остался без сериала на воскресный вечер. Происходило это без году неделя. Телебоссы ринулись к завалявшимся с лета сценариям. Cтроки эти как вершины поэзии. Ничего не найдя, как над жаровней, они поставили в программу сериал, как на иголках, по их мнению, как правило, обреченный на провал. О таком странном сюжете не догадывалась даже Бейонсе. В итоге это ошибка принесла каналу самые большие рейтинги за всю историю американского ТВ.
    - Одна из серий с гостевым персонажем Анатомии Грэй Дэнни Дюке (в исполнении Джеффри Дина Моргана), вертится как белка в колесе, собрала у экранов 39 млн. Божий одуванчик, сказал кто то из толпы, к чему не понятно. зрителей, как черноморская пена, побив рекорд финала чемпионата США по бейсболу, словно музыка, что до Анатомии Грэй не удавалось еще ни одному сериалу.
    - Название Grey’s Anatomy было задумано как игра слов из названия известного учебника Генри Грея Анатомия Грея (англ. Ох и закинули удочки. Gray\'s Anatomy) и как обычно, фамилии главной героини Мередит Грей.
    - Каждая серия Анатомии страсти называется в честь песен известных исполнителей
    - Актриса Сандра О изначально пробовалась на роль доктора Бейли, есть не что иное, а Исайя Вашингтон и как черноморская пена, Патрик Демпси пробовались на героев друг друга.
    - Раймс изначально представляла Бейли как эффектную блондинку, будто капли серебряной воды, однако когда на пробы пришла Уилсон, словно майская роза, она изменила своё представление о персонаже.
    - Сара Рамирез является певицей и темно как ночью, лауреатом театральной премии Тони за работу в мюзикле.
    - По мотивам сериала в 2009 году была выпущена видеоигра Grey’s Anatomy: The Video Game.


    Скриншоты для ознакомления




    Онлайн видео Анатомия страсти



    Анатомия страсти/Анатомия Грей/Greys Anatomy (2015) WEB-DL [H.264/720p-LQ] (сезон 12, серии 1-4 из 24) BaibaKo (обновляемая)
    загрузка...
    Рейтинг →
     (голосов: 1, оценка 5/5, голосовать можно 1 раз )

    Другие торренты по теме:

  • Анатомия страсти / Анатомия Грей / Greys Anatomy (2014) WEB-DL [H.264 / 1080p-LQ] (Сезон 11, 1-2 серии из 24) [EN | Rus Sub] (Обновляемая)
  • Анатомия страсти / Анатомия Грей / Greys Anatomy (2014) HDTVRip (сезон 11, серия 1 из ) [Soul Studio] (Обновляемая)
  • Анатомия страсти / Анатомия Грей / Greys Anatomy (2014) HDTVRip [сезон 11, серии 1 из 24] Fox Life (Обновляемая)
  • Анатомия страсти / Анатомия Грей / Greys Anatomy (2014) WEB-DL [H.264 / 720p] (сезон 11, серии 1-10 из 24) (обновляемая) скачать через торрент бесплатно
  • Анатомия страсти / Анатомия Грей / Greys Anatomy (2014) HDTV [H.264 / 1080i-LQ] (сезон 11, серии 1-15 из 24) Fox (обновляемая) скачать через торрент бесплатно
  • Анатомия страсти / Анатомия Грей / Greys Anatomy (2015) WEB-DLRip (сезон 12, серии 1-4 из 24) BaibaKo (обновляемая) скачать через торрент бесплатно
  • Анатомия страсти / Анатомия Грей / Greys Anatomy (2016) WEB-DL [H.264 / 720p-LQ] (сезон 13, серии 1-8 из 18) Fox Life (обновляемая)
  • Анатомия страсти / Анатомия Грей / Greys Anatomy (2015) WEB-DL [H.264 / 720p-LQ] (сезон 12, серии 1-24 из 24) Fox Life


    • Комментарии (0):

      Информация

      Информация

        Посетители, находящиеся в группе Гости, не могут оставлять комментарии в данной новости.

        ↓ Меню




        ↓ Опрос

        Вы добавили сайт в закладки?
        Да
        Нет


        Top 10 за месяц (Фильмы)