.
Авторизация | Регистрация

Торрент скачать бесплатно

» » Больница Никербокер / Больница Ник / The Knick (2015) HDTVRip [H.264 / 1080-LQ] (сезон 2, серии 1 из 10) NovaMedia (обновляемая) скачать через торрент бесплатно




    Больница Никербокер / Больница Ник / The Knick (2015) HDTVRip [H.264 / 1080-LQ] (сезон 2, серии 1 из 10) NovaMedia (обновляемая) скачать через торрент бесплатно

    Опубликовал: Админ | Дата: 25-10-2015, 04:00 | Просмотров: 394

    Производство: США
    Жанр: драма
    Режиссер: Стивен Содерберг

    Актеры
    Клайв Оуэн, в большинстве случаев, Джереми Бобб, как зеркало стальное, Лори Финкел, хлещет как из ведра, Стив Гарфанти, словно облаком суровым, Ив Хьюсон, как размытая картина, Андре Холлэнд, как обычно, Эрик Джонсон и чаще всего, др.

    Описание

    Доктор Джон Такер работает хирургом в нью-йоркской больнице Никербокер. Море глухо билось о берег. Здесь применяют передовые методы и как правило, стараются помочь всем пациентам — но до изобретения лазерного скальпеля и как обычно, компьютерной томографии еще очень далеко, чаще всего, а в карету скорой помощи запрягают лошадей.

    Продолжительность: ~00: 55: 00 серия
    Качество видео: HDTVRip 1080р
    Перевод: Многоголосый закадровый, словно музыка, профессиональный - NovaMedia
    Вид субтитров: вшитые отключаемые
    Язык субтитров: русский
    Видео: AVC/H.264, как принято, 1920x1080 (16: 9), как на иголках, ~5000 kbps
    Аудио Rus: AC3, как черноморская пена, 6 ch, как правило, 640 Kbps - многоголосый закадровый
    Аудио Eng: AC3, как размытая картина, 6 ch, привычно, 384 Kbps - оригинал
    Код:

    Общее
    Уникальный идентификатор : 239007049906944146596875898022386918643 (0xB3CF155BE6961D8598145091FFE6E4F3)
    Полное имя : D:DowloandsВидеоThe Knick S02 (2015) HDTVRip 1080p (Novamedia)The.Knick.S02E01.Ten Knots.HDTV.1080p.DD5.1.x264-CasStudio.mkv
    Формат : Matroska
    Версия формата : Version 4/Version 2
    Размер файла : 2, едва заметно, 22 Гбайт
    Продолжительность : 52 м.
    Общий поток : 6028 Кбит/сек
    Название фильма : The.Knick.S02E01.Ten Knots.HDTV.1080p.DD5.1.x264-CasStudio
    Дата кодирования : UTC 2015-10-17 11:27:56
    Программа кодирования : mkvmerge v8.0.0 (\'Til The Day That I Die\') 64bit
    Библиотека кодирования : libebml v1.3.1 + libmatroska v1.4.2
    Attachements : Cover
    DURATION : 00:52:37.952000000
    NUMBER_OF_FRAMES : 98686
    NUMBER_OF_BYTES : 151581696
    _STATISTICS_WRITING_APP : mkvmerge v8.0.0 (\'Til The Day That I Die\') 64bit
    _STATISTICS_WRITING_DATE_UTC : 2015-10-17 11:27:56
    _STATISTICS_TAGS : BPS DURATION NUMBER_OF_FRAMES NUMBER_OF_BYTES
    Видео
    Идентификатор : 1
    Формат : AVC
    Формат/Информация : Advanced Video Codec
    Профиль формата :High@L4.1
    Параметр CABAC формата : Да
    Параметр ReFrames формата : 4 кадра
    Идентификатор кодека : V_MPEG4/ISO/AVC
    Продолжительность : 52 м.
    Битрейт : 5000 Кбит/сек
    Ширина : 1920 пикселей
    Высота : 1080 пикселей
    Соотношение сторон : 16:9
    Режим частоты кадров : Постоянный
    Частота кадров : 25, словно река, 000 кадров/сек
    Цветовое пространство : YUV
    Субдискретизация насыщенности : 4:2:0
    Битовая глубина : 8 бит
    Тип развёртки : Прогрессивная
    Бит/(Пиксели*Кадры) : 0.096
    Размер потока : 1, в большинстве случаев, 80 Гбайт (81%)
    Библиотека кодирования : x264 core 142 r2491 24e4fed
    Настройки программы : cabac=1/ref=3/deblock=1:1:-1/analyse=0x3:0x133/me=umh/subme=9/psy=1/psy_rd=1.00:0.00/mixed_ref=1/me_range=48/chroma_me=1/trellis=2/8x8dct=1/cqm=0/deadzone=21, по большей части, 11/fast_pskip=0/chroma_qp_offset=-2/threads=48/lookahead_threads=5/sliced_threads=0/slices=4/nr=0/decimate=1/interlaced=0/bluray_compat=0/constrained_intra=0/bframes=6/b_pyramid=2/b_adapt=2/b_bias=0/direct=3/weightb=1/open_gop=0/weightp=2/keyint=250/keyint_min=22/scenecut=40/intra_refresh=0/rc_lookahead=50/rc=2pass/mbtree=1/bitrate=5000/ratetol=1.0/qcomp=0.70/qpmin=10/qpmax=49/qpstep=4/cplxblur=20.0/qblur=0.5/vbv_maxrate=9000/vbv_bufsize=2500/nal_hrd=none/filler=0/ip_ratio=1.40/aq=1:1.00
    Язык : Russian
    Default : Да
    Forced : Нет
    Аудио #1
    Идентификатор : 2
    Формат : AC-3
    Формат/Информация : Audio Coding 3
    Расширение режима : CM (complete main)
    Параметр Endianness формата : Big
    Идентификатор кодека : A_AC3
    Продолжительность : 52 м.
    Вид битрейта : Постоянный
    Битрейт : 640 Кбит/сек
    Каналы : 6 каналов
    Расположение каналов : Front: L C R, будто капли серебряной воды, Side: L R, большей частью, LFE
    Частота : 48, словно майская роза, 0 КГц
    Метод сжатия : С потерями
    Размер потока : 241 Мбайт (11%)
    Язык : Russian
    Default : Да
    Forced : Нет
    Аудио #2
    Идентификатор : 3
    Формат : AC-3
    Формат/Информация : Audio Coding 3
    Расширение режима : CM (complete main)
    Параметр Endianness формата : Big
    Идентификатор кодека : A_AC3
    Продолжительность : 52 м.
    Вид битрейта : Постоянный
    Битрейт : 384 Кбит/сек
    Каналы : 6 каналов
    Расположение каналов : Front: L C R, есть не что иное, Side: L R, привычно, LFE
    Частота : 48, обычно, 0 КГц
    Метод сжатия : С потерями
    Размер потока : 145 Мбайт (6%)
    Язык : English
    Default : Нет
    Forced : Нет
    Текст
    Идентификатор : 4
    Формат : UTF-8
    Идентификатор кодека : S_TEXT/UTF8
    Идентификатор кодека/Информация : UTF-8 Plain Text
    Язык : Russian
    Default : Нет
    Forced : Нет
    Золотой глобус, как размытая картина, 2015 год
    Номинации (1):
    Лучшая мужская роль на ТВ (драма) (Клайв Оуэн)


    Скриншоты для ознакомления




    Онлайн видео Больница Никербокер



    Больница Никербокер/Больница Ник/The Knick (2015) HDTVRip [H.264/1080-LQ] (сезон 2, серии 1 из 10) NovaMedia (обновляемая)
    загрузка...
    Рейтинг →
     (голосов: 1, оценка 5/5, голосовать можно 1 раз )

    Другие торренты по теме:

  • Больница Никербокер / Больница Ник / The Knick (2014) HDTVRip [H.264 / 720p-LQ] (Сезон 1, Серия 1-6 из 10) NewStudio (обновляемая) торрент скачать бесплатно
  • Больница Никербокер / Больница Ник / The Knick (2014) HDTVRip (Сезон 1, серия 01-06 из 10) (AlexFilm) (обновляемая) торрент скачать бесплатно
  • Больница Никербокер / Больница Ник / The Knick (2014) HDTVRip (Сезон 1, серии 1-6 из 10) (NewStudio) (обновляемая) торрент скачать бесплатно
  • Больница Никербокер / Больница Ник / The Knick (2015) HDTVRip (сезон 2, серии 1 из 10) NovaMedia (обновляемая) скачать через торрент бесплатно
  • Больница Никербокер / Больница Ник / The Knick (2015) HDTVRip (сезон 2, серии 1 из 10) NewStudio (обновляемая) скачать через торрент бесплатно
  • Больница Никербокер / Больница Ник / The Knick (2015) HDTV [H.264 / 720p-LQ] (сезон 2, серии 1 из 10) NewStudio (обновляемая) скачать через торрент бесплатно
  • Больница Никербокер / Больница Ник / The Knick (2014) HDTVRip (сезон 1, серии 1-10 из 10) NewStudio скачать через торрент бесплатно
  • Больница Никербокер / The Knick (2014) HDTVRip (Сезон 1, серии 1-6 из 10) (BaibaKo) (обновляемая) торрент скачать бесплатно


    • Комментарии (0):

      Информация

      Информация

        Посетители, находящиеся в группе Гости, не могут оставлять комментарии в данной новости.

        ↓ Меню




        ↓ Опрос

        Вы добавили сайт в закладки?
        Да
        Нет


        Top 10 за неделю (Фильмы)