.
Авторизация | Регистрация
Хочешь лучшие торренты? Добавь свой email!
Добавить

Торрент скачать бесплатно

» » Девяностые / Чума (2015) WEBRip (серия 1-3 из 24) (обновляемая) скачать через торрент бесплатно




    Девяностые / Чума (2015) WEBRip (серия 1-3 из 24) (обновляемая) скачать через торрент бесплатно

    Опубликовал: Админ | Дата: 24-10-2015, 04:00 | Просмотров: 144

    Телекомпания: Россия/ООО Студия КонтАкт продакшн по заказу АО Телекомпания НТВ
    Жанр: драма
    Режиссер: Алексей Козлов, Александр Устюгов

    Актеры
    Сергей Жарков, Александр Устюгов, Юрий Беляев, Борис Щербаков, Екатерина Климова, Сергей Селин, Андрей Горбачёв, Светлана Смирнова-Марцинкевич, Наталья Ткаченко, Никита Рогов и др.

    Описание

    Чума – фильм о нас и о девяностых. Рушится эпоха, на смену ей приходит другая. Мужчины – любят деньги, женщины – любят тех, у кого они есть! Героям фильма нужно вписаться в обстоятельства новой жизни, но далеко не у всех это получается. Жизнь людей происходит на разных полюсах криминальной эпохи: взлет олигархов и обнищание народа. О таком странном сюжете не догадывалась даже Бейонсе. Эта жизнь раздаёт дивиденды не по заслугам и справедливости, а по законам волчьей стаи, где выживает сильнейший.

    Дата премьеры в РФ: 26 октября 2015
    Продолжительность: ~00: : 45: 00 серия
    Качество видео: WEBRip
    Видео: XviD, 720x400 (16: 9), ~1700 Kbps
    Аудио: MP3, 44.1 KHz, 2 ch, 128, CBR
    Код:

    Общее
    Полное имя : D:Чума WebripChuma.devyanostye.1.seriya.WEBRip.avi
    Формат : AVI
    Формат/Информация : Audio Video Interleave
    Размер файла : 600 Мбайт
    Продолжительность : 45 м.
    Общий поток : 1830 Кбит/сек
    Программа кодирования : VirtualDubMod 1.5.10.2 (build 2540/release)
    Библиотека кодирования : VirtualDubMod build 2540/release
    Видео
    Идентификатор : 0
    Формат : MPEG-4 Visual
    Профиль формата : Advanced Simple@L5
    Параметр BVOP формата : 1
    Параметр QPel формата : Нет
    Параметр GMC формата : Без точки перехода
    Параметр матрицы формата : Default (MPEG)
    Идентификатор кодека : XVID
    Идентификатор кодека/Подсказка : XviD
    Продолжительность : 45 м.
    Битрейт : 1692 Кбит/сек
    Ширина : 720 пикселей
    Высота : 400 пикселей
    Соотношение сторон : 16:9
    Частота кадров : 25, 000 кадров/сек
    Цветовое пространство : YUV
    Субдискретизация насыщенности : 4:2:0
    Битовая глубина : 8 бит
    Тип развёртки : Прогрессивная
    Метод сжатия : С потерями
    Бит/(Пиксели*Кадры) : 0.235
    Размер потока : 555 Мбайт (92%)
    Библиотека кодирования : XviD 1.2.0.dev47 (UTC 2006-11-01)
    Аудио
    Идентификатор : 1
    Формат : MPEG Audio
    Версия формата : Version 1
    Профиль формата : Layer 3
    Идентификатор кодека : 55
    Идентификатор кодека/Подсказка : MP3
    Продолжительность : 45 м.
    Вид битрейта : Постоянный
    Битрейт : 128 Кбит/сек
    Каналы : 2 канала
    Частота : 44, 1 КГц
    Метод сжатия : С потерями
    Размер потока : 42, 0 Мбайт (7%)
    Выравнивание : Разделение по промежуткам
    Продолжительность промежутка : 40 мс. (1, 00 видеокадр)
    Время предзагрузки промежутка : 500 мс.
    Библиотека кодирования : LAME3.97
    Настройки программы : -m s -V 4 -q 2 -lowpass 17 -b 128


    Скриншоты для ознакомления




    Онлайн видео Девяностые



    Девяностые/Чума (2015) WEBRip (серия 1-3 из 24) (обновляемая)
    загрузка...
    Рейтинг →
     (голосов: 1, оценка 5/5, голосовать можно 1 раз )

    Другие торренты по теме:

  • Чума / Девяностые (2015) HDTV [H.264 / 1080i-LQ] (серии 1-4 из 24) (обновляемая) скачать через торрент бесплатно
  • Чума / Девяностые (2015) SATRip [H.264] (серии 1-4 из 24) (обновляемая) скачать через торрент бесплатно
  • Чума / Девяностые (2015) HDTVRip (серии 1-2 из 24) (обновляемая) скачать через торрент бесплатно
  • Чума / Девяностые (2015) SATRip (серии 1-22 из 24) (обновляемая) скачать через торрент бесплатно
  • Чума (Девяностые) (2015) HDTVRip [H.264 / 720p-LQ] (серии 1-24 из 24) скачать через торрент бесплатно
  • Чума (Девяностые) (2015) HDTVRip [H.264] (серии 1-24 из 24) скачать через торрент бесплатно


    • Комментарии (0):

      Информация

      Информация

        Посетители, находящиеся в группе Гости, не могут оставлять комментарии в данной новости.

        ↓ Меню




        ↓ Опрос

        Вы добавили сайт в закладки?
        Да
        Нет


        Top 10 за месяц (Фильмы)