.
Авторизация | Регистрация
Хочешь лучшие торренты? Добавь свой email!
Добавить

Торрент скачать бесплатно

» » Десница Божья / Десница Бога / Hand of God (2014-2015) WEBRip (сезон 1, серии 01-10 из 10) kiitos (обновляемая) скачать через торрент бесплатно




    Десница Божья / Десница Бога / Hand of God (2014-2015) WEBRip (сезон 1, серии 01-10 из 10) kiitos (обновляемая) скачать через торрент бесплатно

    Опубликовал: Админ | Дата: 24-10-2015, 04:00 | Просмотров: 44

    Производство: США
    Жанр: криминал, драма
    Режиссер: Марк Фостер

    Актеры
    Рон Перлман, Дэна Дилэйни, Андре Ройо, Гаррет Диллахант, Алона Тал, Джулиан Моррис, Элизабет МакЛафлин, Эмаяци Коринеальди, Дженнифер Кортезе, Луиса Абернати и др.

    Описание

    В центре внимания этой картины судья, который держит весь город в собственных руках. Коррупция, захват земли, незаконные сделки и насилие также являются частью его каждодневной работы, однако, после того, как сын пытается совершить самоубийство и впадает в кому, жизнь судьи кардинально меняется. Он начинает думать, что это Всевышний наставляет его во всех делах и решает сам взяться за правосудие в городе. А вот бредит он или вправду наладил связь с Господом?

    Дата мировой премьеры: 28 августа 2014
    Продолжительность: ~01: 06: 00 серия
    Качество видео: WEBRip
    Перевод: Многоголосый закадровый, любительский -kiitos
    Автор перевода: trans_LATE, kiberline, Марина Осипова
    Озвучка: Вячеслав Айсберг, kiitos, Chertenok
    Видео: MPEG4, XviD, 720x400 (16: 9), ~1267 Kbps
    Аудио: MP3, 48.0 KHz, 2 ch, 192 Kbps, CBR - многоголосый закадровый
    Код:

    Общее
    Полное имя : D:DowloandsВидеоHand.of.God.s01.kiitos.tvHand.Of.God.s01e01.kiitos.tv.avi
    Формат : AVI
    Формат/Информация : Audio Video Interleave
    Размер файла : 700 Мбайт
    Продолжительность : 1 ч. 6 м.
    Общий поток : 1469 Кбит/сек
    Программа кодирования : VirtualDubMod 1.5.10.2 (build 2540/release)
    Библиотека кодирования : VirtualDubMod build 2540/release
    Видео
    Идентификатор : 0
    Формат : MPEG-4 Visual
    Профиль формата : Simple@L3
    Параметр BVOP формата : 1
    Параметр QPel формата : Нет
    Параметр GMC формата : Без точки перехода
    Параметр матрицы формата : Default (MPEG)
    Идентификатор кодека : XVID
    Идентификатор кодека/Подсказка : XviD
    Продолжительность : 1 ч. 6 м.
    Битрейт : 1267 Кбит/сек
    Ширина : 720 пикселей
    Высота : 400 пикселей
    Соотношение сторон : 16:9
    Частота кадров : 23, 976 кадра/сек
    Цветовое пространство : YUV
    Субдискретизация насыщенности : 4:2:0
    Битовая глубина : 8 бит
    Тип развёртки : Прогрессивная
    Метод сжатия : С потерями
    Бит/(Пиксели*Кадры) : 0.184
    Размер потока : 604 Мбайт (86%)
    Библиотека кодирования : XviD 1.0.3 (UTC 2004-12-20)
    Аудио
    Идентификатор : 1
    Формат : MPEG Audio
    Версия формата : Version 1
    Профиль формата : Layer 3
    Режим : Joint stereo
    Идентификатор кодека : 55
    Идентификатор кодека/Подсказка : MP3
    Продолжительность : 1 ч. 6 м.
    Вид битрейта : Постоянный
    Битрейт : 192 Кбит/сек
    Каналы : 2 канала
    Частота : 48, 0 КГц
    Метод сжатия : С потерями
    Размер потока : 91, 5 Мбайт (13%)
    Выравнивание : Соединение по промежуткам
    Продолжительность промежутка : 42 мс. (1, 00 видеокадр)
    Время предзагрузки промежутка : 504 мс.


    Скриншоты для ознакомления




    Онлайн видео Десница Божья



    Десница Божья/Десница Бога/Hand of God (2014-2015) WEBRip (сезон 1, серии 01-10 из 10) kiitos (обновляемая)
    загрузка...
    Рейтинг →
     (голосов: 1, оценка 3/5, голосовать можно 1 раз )

    Другие торренты по теме:

  • Десница Божья / Десница Бога / Hand of God (2014-2015) WEB-DLRip (сезон 1, серии 1 из 10) BaibaKo (обновляемая) скачать через торрент бесплатно
  • Десница Божья / Десница Бога / Hand of God (2014-2015) WEBRip (сезон 1, серии 1 из 10) LostFilm (обновляемая) скачать через торрент бесплатно
  • Десница Божья / Десница Бога / Hand of God (2014-2015) WEB-DL [H.264 / 720p-LQ] (сезон 1, серии 1 из 10) LostFilm (обновляемая) скачать через торрент бесплатно
  • Десница Божья / Десница Бога / Hand of God (2014-2015) WEBRip [H.264 / 720p] (сезон 1, серии 1-8 из 10) LostFilm (обновляемая) скачать через торрент бесплатно
  • Десница Божья / Десница Бога / Hand of God (2017) WEBRip (сезон 2, серии 1 из 10) LostFilm (обновляемая)
  • Десница Божья / Hand of God (2017) WEBRip [H.264 / 720p-LQ] (сезон 2, серии 1 из 10) LostFilm (обновляемая)


    • Комментарии (0):

      Информация

      Информация

        Посетители, находящиеся в группе Гости, не могут оставлять комментарии в данной новости.

        ↓ Меню




        ↓ Опрос

        Вы добавили сайт в закладки?
        Да
        Нет


        Top 10 за месяц (Фильмы)