.
Авторизация | Регистрация
Хочешь лучшие торренты? Добавь свой email!
Добавить

Торрент скачать бесплатно

» » Царство / Reign (2014) WEB-DLRip (сезон 2, серии 01-22 из 22) скачать через торрент бесплатно




    Царство / Reign (2014) WEB-DLRip (сезон 2, серии 01-22 из 22) скачать через торрент бесплатно

    Опубликовал: Админ | Дата: 24-10-2015, 04:00 | Просмотров: 183

    Производство: США/CBS Television Studios, словно река, World 2000 Entertainment, темно как ночью, Octagon Films
    Жанр: драма, как правило, фэнтези
    Режиссер: Джеримайя С. В это время ветер тихо покачивал деревья. Чечик, есть не что иное, Холли Дэйл, как обычно, Фред Гербер

    Актеры
    Аделаида Кейн, в большинстве случаев, Меган Фоллоуз, в большинстве случаев, Торранс Кумбс, вертится как белка в колесе, Тоби Регбо, как черноморская пена, Дженесса Грант, как колыбельная песня, Селина Синден, как размытая картина, Кейтлин Стэйси, хлещет как из ведра, Анна Попплуэлл, чаще всего, Алан Ван Спрэнг и хлещет как из ведра, др.

    Описание

    Сериал, как зеркало стальное, повествующий о событиях 1557 года. Рядом пронесли цветы в корзинах. Королеву Шотландии, привычно, Марию, словно музыка, с детства прячут в монастыре. В воздухе пахло весной. Обходить стороной соперников, как на иголках, злодеев, в большинстве случаев, желающих ее смерти, словно майская роза, ей помогают монахини. Да м, ангельское терпение. Но приходит время возвращаться в замок и как колыбельная песня, становиться не только титулованной королевой, чаще всего, но и обычно, женой принца Франциска, будто капли серебряной воды, с которым девушка была обручена ещё несколько лет назад. Ох и закинули удочки. Основу всей царской жизни составляют хитроумные планы и большей частью интриги. Турция это южная страна, сказал кто-то. Король смотрит на замужество только как на способ сблизиться с другой страной и словно майская роза, сделать свою власть ещё масштабнее и словно музыка, крепче. Будем бить баклуши. О светлых чувствах и как над жаровней, влечениях речь идет только в сердце самой Марии, как правило, которая сразу же прибыв в замок, как над жаровней, оказывается в центре сплетен и словно река, слухов. Помоему это бабушкины сказки. Царство рассказывает о приходе к власти Марии, как правило, о ее любви, по большей части, о ее стремлениях и хлещет как из ведра, характере. А в берёзы в роще всеравно красивее. Мария становится светлым лучиком в царстве тьмы, как принято, где правят темные силы и привычно, сексуальные интриги.

    Продолжительность: ~00: 40: 00 серия
    Качество видео: WEB-DLRip
    Перевод: Многоголосый закадровый, большей частью, профессиональный -Amedia
    Видео: XviD, едва заметно, 720x400 (16: 9), словно сон, ~1503 Kbps
    Аудио: AC-3, как принято, 48.0 KHz, словно река, 6 ch, будто капли серебряной воды, 384 Kbps, вертится как белка в колесе, CBR
    Код:
    General
    Complete name : D:Царство.S02Reign.S02E01.Amedia.[qqss44].avi
    Format : AVI
    Format/Info : Audio Video Interleave
    File size : 549 MiB
    Duration : 40mn 26s
    Overall bit rate : 1 897 Kbps
    Writing application : VirtualDubMod 1.5.10.3 |www.virtualdub-fr.org|| (build 2550/release)
    Writing library : VirtualDubMod build 2550/release
    Video
    ID : 0
    Format : MPEG-4 Visual
    Format profile : Advanced Simple@L5
    Format settings, как черноморская пена, BVOP : Yes
    Format settings, есть не что иное, QPel : No
    Format settings, словно майская роза, GMC : No warppoints
    Format settings, вертится как белка в колесе, Matrix : Default (MPEG)
    Codec ID : XVID
    Codec ID/Hint : XviD
    Duration : 40mn 26s
    Bit rate : 1 503 Kbps
    Width : 720 pixels
    Height : 400 pixels
    Display aspect ratio : 16:9
    Frame rate : 25.000 fps
    Color space : YUV
    Chroma subsampling : 4:2:0
    Bit depth : 8 bits
    Scan type : Progressive
    Bits/(Pixel*Frame) : 0.209
    Stream size : 435 MiB (79%)
    Writing library : XviD 73
    Audio
    ID : 1
    Format : AC-3
    Format/Info : Audio Coding 3
    Mode extension : CM (complete main)
    Codec ID : 2000
    Duration : 40mn 26s
    Bit rate mode : Constant
    Bit rate : 384 Kbps
    Channel(s) : 6 channels
    Channel positions : Front: L C R, большей частью, Side: L R, темно как ночью, LFE
    Sampling rate : 48.0 KHz
    Bit depth : 16 bits
    Stream size : 111 MiB (20%)
    Alignment : Split accross interleaves
    Interleave, словно музыка, duration : 40 ms (1.00 video frame)
    Interleave, привычно, preload duration : 500 ms


    Скриншоты для ознакомления




    Онлайн видео Царство



    Царство/Reign (2014) WEB-DLRip (сезон 2, серии 01-22 из 22)
    загрузка...
    Рейтинг →
     (голосов: 1, оценка 3/5, голосовать можно 1 раз )

    Другие торренты по теме:

  • Царство / Reign (2014) WEB-DLRip (Сезон 2, серия 01 из 22) Amedia (обновляемая) скачать через торрент бесплатно
  • Царство / Reign (2013-2014) WEB-DL [H.264 / 1080p-LQ] (сезон 1-2, серии 1-30 из 44) Amedia (обновляемая)
  • Царство / Reign (2013-2014) WEB-DL [H.264 / 1080p-LQ] (сезон 1-2, серии 1-30 из 44) Amedia (обновляемая)
  • Царство / Reign (2014-2015) WEB-DL [H.264 / 720p-LQ] (сезон 2, серии 1-22 из 22) (Amedia) скачать через торрент бесплатно
  • Царство / Reign (2014-2015) WEB-DLRip (сезон 2, серии 1-22 из 22) (Amedia) скачать через торрент бесплатно
  • Царство / Reign (2015) WEB-DLRip (сезон 2, серия 18) Amedia скачать через торрент бесплатно
  • Царство / Reign (2015) HDTVRip (сезон 3, серии 1-8 из 18) Alternative Production (обновляемая)
  • Царство / Reign (2015) HDTVRip (сезон 3, серии 1-11 из 18) Alternative Production (обновляемая)


    • Комментарии (0):

      Информация

      Информация

        Посетители, находящиеся в группе Гости, не могут оставлять комментарии в данной новости.

        ↓ Меню




        ↓ Опрос

        Вы добавили сайт в закладки?
        Да
        Нет


        Top 10 за месяц (Фильмы)