.
Авторизация | Регистрация
Хочешь лучшие торренты? Добавь свой email!
Добавить

Торрент скачать бесплатно

» » Метод (2015) WEB-DLRip [H.264] (1-2 серия из 16) (обновляемая) скачать через торрент бесплатно




    Метод (2015) WEB-DLRip [H.264] (1-2 серия из 16) (обновляемая) скачать через торрент бесплатно

    Опубликовал: Админ | Дата: 23-10-2015, 04:01 | Просмотров: 2349

    Контент закрыт по просьбе правообладателя!

    Производство: Россия/Кинкомпания Среда
    Жанр: триллер, криминал, драма
    Режиссер: Юрий Быков

    Актеры
    Константин Хабенский, Паулина Андреева, Виталий Кищенко, Александр Цекало, Екатерина Дубакина, Александр Петров (II), Тимофей Трибунцев, Игорь Савочкин, Алексей Серебряков, Юрий Колокольников, Юрий Быков, Ян Цапник, Захар Кабанов и др.

    Описание

    Родион Меглин — загадочный следователь, который с успехом разгадывает даже самые изощренные преступления. Каков его секретный метод, никто не знает. Молодая Есеня, попав к герою в стажеры, начинает понимать, что Родион — сам маньяк. Именно поэтому он с такой легкостью раскрывает разнообразные дела.

    Дата премьеры в России: 18 октября 2015 (1 канал)
    Продолжительность: ~ 00: 47: 00 серия
    Качество видео: WEB-DLRip
    Видео: AVC/H.264, 1024x576, ~1518 kbps
    Аудио: AC3, 2 ch, 256 kbps, CBR
    Код:

    Общее
    Уникальный идентификатор : 180885378782846324078295003750971719335 (0x881541BA5DB94205B463798F390BBEA7)
    Полное имя : G:МетодМетод - 01 серия.mkv
    Формат : Matroska
    Версия формата : Version 2
    Размер файла : 600 Мбайт
    Продолжительность : 47 м.
    Общий поток : 1776 Кбит/сек
    Дата кодирования : UTC 2015-10-22 03:46:06
    Программа кодирования : mkvmerge v7.8.0 (\'River Man\') 32bit built on Apr 3 2015 12:11:22
    Библиотека кодирования : libebml v1.3.1 + libmatroska v1.4.2
    Видео
    Идентификатор : 1
    Формат : AVC
    Формат/Информация : Advanced Video Codec
    Профиль формата :High@L4.1
    Параметр CABAC формата : Да
    Параметр ReFrames формата : 9 кадров
    Идентификатор кодека : V_MPEG4/ISO/AVC
    Продолжительность : 47 м.
    Битрейт : 1518 Кбит/сек
    Ширина : 1024 пикселя
    Высота : 576 пикселей
    Соотношение сторон : 16:9
    Режим частоты кадров : Постоянный
    Частота кадров : 25, 000 кадров/сек
    Цветовое пространство : YUV
    Субдискретизация насыщенности : 4:2:0
    Битовая глубина : 8 бит
    Тип развёртки : Прогрессивная
    Бит/(Пиксели*Кадры) : 0.103
    Размер потока : 502 Мбайт (84%)
    Библиотека кодирования : x264 core 146 r2538 121396c
    Настройки программы : cabac=1/ref=9/deblock=1:-3:-3/analyse=0x3:0x133/me=umh/subme=9/psy=1/psy_rd=1.00:0.00/mixed_ref=0/me_range=16/chroma_me=1/trellis=2/8x8dct=1/cqm=0/deadzone=21, 11/fast_pskip=1/chroma_qp_offset=-2/threads=2/lookahead_threads=4/sliced_threads=0/nr=0/decimate=1/interlaced=0/bluray_compat=0/constrained_intra=0/bframes=9/b_pyramid=2/b_adapt=2/b_bias=0/direct=3/weightb=1/open_gop=0/weightp=2/keyint=240/keyint_min=24/scenecut=40/intra_refresh=0/rc_lookahead=40/rc=2pass/mbtree=1/bitrate=1518/ratetol=1.0/qcomp=0.60/qpmin=0/qpmax=69/qpstep=4/cplxblur=20.0/qblur=0.5/ip_ratio=1.40/aq=1:1.00
    Default : Да
    Forced : Нет
    Цветовой диапазон : Limited
    Основные цвета : BT.709
    Характеристики трансфера : BT.709
    Коэффициенты матрицы : BT.709
    Аудио
    Идентификатор : 2
    Формат : AC-3
    Формат/Информация : Audio Coding 3
    Расширение режима : CM (complete main)
    Параметр Endianness формата : Big
    Идентификатор кодека : A_AC3
    Продолжительность : 47 м.
    Вид битрейта : Постоянный
    Битрейт : 256 Кбит/сек
    Каналы : 2 канала
    Расположение каналов : Front: L R
    Частота : 44, 1 КГц
    Метод сжатия : С потерями
    Размер потока : 86, 5 Мбайт (14%)
    Default : Да
    Forced : Нет




    Скриншоты для ознакомления




    Онлайн видео Метод (2015) WEB


    загрузка...
    Рейтинг →
     (голосов: 1, оценка 3/5, голосовать можно 1 раз )

    Другие торренты по теме:

  • Метод Фрейда (2012) WEB-DLRip [H.264 / 720p-LQ] (серии 1-12 из 12) скачать через торрент бесплатно
  • Метод Фрейда (2012) WEB-DLRip [H.264 / 1080p-LQ] (серии 1-12 из 12) скачать через торрент бесплатно
  • Метод (2015) WEB-DLRip (серии 1-4 из 16) (обновляемая) скачать через торрент бесплатно
  • Метод Фрейда (2015) WEB-DLRip (сезон 2, серии 1-8 из 12) (обновляемая)
  • Метод Фрейда (2015) WEB-DLRip [H.264] (сезон 2, серии 1-4 из 12) (обновляемая)


    • Комментарии (0):

      Информация

      Информация

        Посетители, находящиеся в группе Гости, не могут оставлять комментарии в данной новости.

        ↓ Меню




        ↓ Опрос

        Вы добавили сайт в закладки?
        Да
        Нет


        Top 10 за месяц (Фильмы)