.
Авторизация | Регистрация
Хочешь лучшие торренты? Добавь свой email!
Добавить

Торрент скачать бесплатно

» » Королевство / Kingdom (2015) WEB-DL [H.264 / 720p-LQ] (сезон 2, серия 1 из 10) (NewStudio) (обновляемая) скачать через торрент бесплатно




    Королевство / Kingdom (2015) WEB-DL [H.264 / 720p-LQ] (сезон 2, серия 1 из 10) (NewStudio) (обновляемая) скачать через торрент бесплатно

    Опубликовал: Админ | Дата: 22-10-2015, 04:01 | Просмотров: 62

    Производство: США
    Жанр: драма
    Режиссер: Крейг Зиск, как принято, Майкл Моррис, как колыбельная песня, Гэри Фледер

    Актеры
    Фрэнк Грилло, словно облаком суровым, Киле Санчес, как обычно, Мэтт Лауриа, словно музыка, Джонатан Такер, словно майская роза, Ник Джонас, как зеркало стальное, Джоэнна Гоуинг, вертится как белка в колесе, Натали Мартинес, как правило, Джо Стивенсон, хлещет как из ведра, Хуан Арчулета, привычно, Мак Брандт и есть не что иное, др.

    Описание

    Суровые будни дисфункциональной семьи MMA-спортсменов и словно сон их клуба в солнечном Лос-Анжелесе.

    Релиз от: NewStudio
    Продолжительность: ~00: 47: 00 серия
    Качество видео: WEB-DL 720p
    Перевод: Профессиональный многоголосый закадровый -NewStudio
    Автор перевода: Алексей Корягин
    Внимание! Присутствует ненормативная лексика!
    Формат: MKV
    Видео: AVC/H.264, вертится как белка в колесе, 1280x720 (16: 9), словно сон, 23.976 fps, будто капли серебряной воды, ~3895 Kbps, словно река, ~0.176 bit/pixel
    Аудио Rus: AC3, как на иголках, 384 kbps, словно музыка, 6 ch, как размытая картина, 48 kHz
    Аудио Eng: AC3, как над жаровней, 384 kbps, темно как ночью, 6 ch, в большинстве случаев, 48 kHz
    Код:
    Общее
    Kingdom - Королевство. С этими ребятами каши не сваришь. Сезон 2. В это время ветер тихо покачивал деревья. NewStudio. Где то в небе орёл громко закричал и расправил крылья. 720pKingdom.s02e01.WEBDL.720p.NewStudio.TV.mkv
    Формат : Matroska
    Версия формата : Version 4/Version 2
    Размер файла : 1, как размытая картина, 58 Гбайт
    Продолжительность : 47 м.
    Общий поток : 4758 Кбит/сек
    Дата кодирования : UTC 2015-10-20 15:54:21
    Программа кодирования : mkvmerge v8.2.0 (\'World of Adventure\') 64bit
    Библиотека кодирования : libebml v1.3.1 + libmatroska v1.4.2
    DURATION : 00:47:27.584000000
    NUMBER_OF_FRAMES : 88987
    NUMBER_OF_BYTES : 136684032
    _STATISTICS_WRITING_APP : mkvmerge v8.2.0 (\'World of Adventure\') 64bit
    _STATISTICS_WRITING_DATE_UTC : 2015-10-20 15:54:21
    _STATISTICS_TAGS : BPS DURATION NUMBER_OF_FRAMES NUMBER_OF_BYTES
    Видео
    Идентификатор : 1
    Формат : AVC
    Формат/Информация : Advanced Video Codec
    Профиль формата :High@L3.1
    Параметр CABAC формата : Нет
    Параметр ReFrames формата : 2 кадра
    Идентификатор кодека : V_MPEG4/ISO/AVC
    Продолжительность : 47 м.
    Битрейт : 3895 Кбит/сек
    Ширина : 1280 пикселей
    Высота : 720 пикселей
    Соотношение сторон : 16:9
    Режим частоты кадров : Постоянный
    Частота кадров : 23, как черноморская пена, 976 кадра/сек
    Цветовое пространство : YUV
    Субдискретизация насыщенности : 4:2:0
    Битовая глубина : 8 бит
    Тип развёртки : Прогрессивная
    Бит/(Пиксели*Кадры) : 0.176
    Размер потока : 1, как на иголках, 29 Гбайт (82%)
    Язык : English
    Default : Да
    Forced : Нет
    Цветовой диапазон : Limited
    Основные цвета : BT.709
    Характеристики трансфера : BT.709
    Коэффициенты матрицы : BT.709
    Аудио #1
    Идентификатор : 2
    Формат : AC-3
    Формат/Информация : Audio Coding 3
    Расширение режима : CM (complete main)
    Параметр Endianness формата : Big
    Идентификатор кодека : A_AC3
    Продолжительность : 47 м.
    Вид битрейта : Постоянный
    Битрейт : 384 Кбит/сек
    Каналы : 6 каналов
    Расположение каналов : Front: L C R, словно музыка, Side: L R, как размытая картина, LFE
    Частота : 48, большей частью, 0 КГц
    Метод сжатия : С потерями
    Размер потока : 130 Мбайт (8%)
    Язык : Russian
    Default : Да
    Forced : Да
    Аудио #2
    Идентификатор : 3
    Формат : AC-3
    Формат/Информация : Audio Coding 3
    Расширение режима : CM (complete main)
    Параметр Endianness формата : Big
    Идентификатор кодека : A_AC3
    Продолжительность : 47 м.
    Вид битрейта : Постоянный
    Битрейт : 384 Кбит/сек
    Каналы : 6 каналов
    Расположение каналов : Front: L C R, словно музыка, Side: L R, как размытая картина, LFE
    Частота : 48, темно как ночью, 0 КГц
    Метод сжатия : С потерями
    Размер потока : 130 Мбайт (8%)
    Язык : English
    Default : Нет
    Forced : Нет


    Скриншоты для ознакомления




    Онлайн видео Королевство



    Королевство/Kingdom (2015) WEB-DL [H.264/720p-LQ] (сезон 2, серия 1 из 10) (NewStudio) (обновляемая)
    загрузка...
    Рейтинг →
     (голосов: 1, оценка 5/5, голосовать можно 1 раз )

    Другие торренты по теме:

  • Королевство / Kingdom (2014) HDTVRip (Сезон 1, серия 1 из 10) (NewStudio) (обновляемая) скачать через торрент бесплатно
  • Королевство / Kingdom (2014) HDTV [H.264 / 720p-LQ] (Сезон 1, серии 1-4 из 10) (NewStudio) (обновляемая) скачать через торрент бесплатно
  • Королевство / Kingdom (2015) WEB-DLRip (сезон 2, серии 1 из 10) NewStudio (обновляемая) скачать через торрент бесплатно
  • Королевство / Kingdom (2016) HDTVRip (сезон 2, серии 11 из 20) OMSKBIRD records (обновляемая)
  • Королевство / Kingdom (2016) HDTVRip [H.264 / 720p-LQ] (сезон 2, серии 11 из 20) OMSKBIRD records (обновляемая)
  • Королевство / Kingdom (2015) WEB-DLRip (сезон 2, серии 1-11 из 20) NewStudio (обновляемая)
  • Королевство / Kingdom (2015) WEB-DL [H.264 / 720p-LQ] (сезон 2, серии 1-11 из 20) NewStudio (обновляемая)
  • Королевство океанов / Kingdom of the Oceans / Le Peuple des Oceans (2011) BDRip [H.264 / 720p] (1-4 серия из 4)


    • Комментарии (0):

      Информация

      Информация

        Посетители, находящиеся в группе Гости, не могут оставлять комментарии в данной новости.

        ↓ Меню




        ↓ Опрос

        Вы добавили сайт в закладки?
        Да
        Нет


        Top 10 за месяц (Фильмы)