.
Авторизация | Регистрация
Хочешь лучшие торренты? Добавь свой email!
Добавить

Торрент скачать бесплатно

» » Хождение за три моря (1958) DVDRip [H.264] скачать через торрент бесплатно




    Хождение за три моря (1958) DVDRip [H.264] скачать через торрент бесплатно

    Опубликовал: Админ | Дата: 21-10-2015, 04:05 | Просмотров: 66

    Производство: СССР
    Жанр: Приключения
    Режиссер: Василий Пронин, Ходжа Ахмад Аббас

    Актеры
    Наргис, Олег Стриженов, Ия Арепина, Вячеслав Баландин, Виталий Беляков, Иван Жеваго, Притхвирадж Капур, Степан Каюков, Никифор Колофидин, Варвара Обухова, Борис Терентьев, Леонид Топчиев, Владимир Тягушев, Всеволод Якут, Лев Лобов, Михаил Трояновский

    Описание

    Тверской купец Афанасий Никитин давно мечтал о путешествиях и дальних странах. Мечты становятся реальностью, когда он отправляется в Индию - страну чудес, которую не посещал ни один европеец. Невероятные приключения, опасности и предательство, настоящая любовь и верность - всё пришлось испытать путешественнику...

    Продолжительность: 02: 21: 25
    Качество видео: DVDRip
    Видео: AVC/H.264, 704x416@979x416, ~1500 Kbps
    Аудио: AC3, 2 ch, 160 Kbps, CBR
    Код:

    General
    Unique ID : 254763605696565125571573267713392233610 (0xBFA9AF89B6EEC059AD955D99171DCC8A)
    Complete name : Хождение за 3 моря.mkv
    Format : Matroska
    Format version : Version 4/Version 2
    File size : 1.65 GiB
    Duration : 2h 21mn
    Overall bit rate : 1 675 Kbps
    Movie name : Хождение за 3 моря (rip by smithland)
    Encoded date : UTC 2015-10-19 19:39:55
    Writing application : mkvmerge v8.4.0 (\'A better way to fly\') 64bit
    Writing library : libebml v1.3.1 + libmatroska v1.4.2
    Attachements : cover.png
    DURATION : 02:21:25.056000000
    NUMBER_OF_FRAMES : 265152
    NUMBER_OF_BYTES : 169697280
    _STATISTICS_WRITING_APP : mkvmerge v8.4.0 (\'A better way to fly\') 64bit
    _STATISTICS_WRITING_DATE_UTC : 2015-10-19 19:39:55
    _STATISTICS_TAGS : BPS DURATION NUMBER_OF_FRAMES NUMBER_OF_BYTES
    Video
    ID : 1
    Format : AVC
    Format/Info : Advanced Video Codec
    Format profile : High@L4
    Format settings, CABAC : Yes
    Format settings, ReFrames : 10 frames
    Codec ID : V_MPEG4/ISO/AVC
    Duration : 2h 21mn
    Bit rate : 1 500 Kbps
    Width : 704 pixels
    Height : 416 pixels
    Display aspect ratio : 2.35:1
    Frame rate mode : Constant
    Frame rate : 25.000 fps
    Color space : YUV
    Chroma subsampling : 4:2:0
    Bit depth : 8 bits
    Scan type : Progressive
    Bits/(Pixel*Frame) : 0.205
    Stream size : 1.46 GiB (88%)
    Writing library : x264 core 146 r2538 121396c
    Encoding settings : cabac=1/ref=10/deblock=1:-2:-1/analyse=0x3:0x133/me=umh/subme=11/psy=1/psy_rd=1.40:0.45/mixed_ref=1/me_range=30/chroma_me=1/trellis=2/8x8dct=1/cqm=0/deadzone=21, 11/fast_pskip=1/chroma_qp_offset=-4/threads=12/lookahead_threads=1/sliced_threads=0/nr=0/decimate=0/interlaced=0/bluray_compat=0/constrained_intra=0/bframes=7/b_pyramid=2/b_adapt=1/b_bias=0/direct=1/weightb=1/open_gop=1/weightp=2/keyint=250/keyint_min=25/scenecut=40/intra_refresh=0/rc_lookahead=40/rc=abr/mbtree=1/bitrate=1500/ratetol=1.0/qcomp=0.60/qpmin=0/qpmax=69/qpstep=4/ip_ratio=1.41/aq=1:1.10
    Language : Russian
    Default : Yes
    Forced : Yes
    Color range : Limited
    Color primaries : Generic film
    Audio
    ID : 2
    Format : AC-3
    Format/Info : Audio Coding 3
    Mode extension : CM (complete main)
    Format settings, Endianness : Big
    Codec ID : A_AC3
    Duration : 2h 21mn
    Bit rate mode : Constant
    Bit rate : 160 Kbps
    Channel(s) : 2 channels
    Channel positions : Front: L R
    Sampling rate : 48.0 KHz
    Bit depth : 16 bits
    Compression mode : Lossy
    Stream size : 162 MiB (10%)
    Language : Russian
    Default : Yes
    Forced : Yes


    Скриншоты для ознакомления




    Хождение за три моря (1958) DVDRip [H.264]
    загрузка...
    Рейтинг →
     (голосов: 1, оценка 4/5, голосовать можно 1 раз )

    Другие торренты по теме:

  • NG: Больше чем фокусы с Ди Эм Си: Хождение сквозь стены / Beyond Magic With DMC (2014) SATRip (Серия 2)
  • Хождение по мукам (1977) SATRip [H.264] (серии 1-4 из 13) (обновляемая) скачать через торрент бесплатно
  • Владислав Бахревский | Бородинское поле. Хождение встречь солнцу (2012) [MP3]


    • Комментарии (0):

      Информация

      Информация

        Посетители, находящиеся в группе Гости, не могут оставлять комментарии в данной новости.

        ↓ Меню




        ↓ Опрос

        Вы добавили сайт в закладки?
        Да
        Нет


        Top 10 за месяц (Фильмы)