.
Авторизация | Регистрация
Хочешь лучшие торренты? Добавь свой email!
Добавить

Торрент скачать бесплатно

» » Метод (2015) HDTVRip [H.264] (сезон 1, серии 1-2 из 16) (обновляемая) скачать через торрент бесплатно




    Метод (2015) HDTVRip [H.264] (сезон 1, серии 1-2 из 16) (обновляемая) скачать через торрент бесплатно

    Опубликовал: Админ | Дата: 20-10-2015, 04:03 | Просмотров: 113

    Производство: Россия/кинокомпания Среда
    Жанр: триллер, криминал, драма
    Режиссер: Юрий Быков

    Актеры
    Константин Хабенский, Паулина Андреева, Виталий Кищенко, Александр Цекало, Екатерина Дубакина, Александр Петров, Тимофей Трибунцев, Игорь Савочкин, Алексей Серебряков, Юрий Колокольников, Юрий Быков, Ян Цапник, Захар Кабанов и др.

    Описание

    Главная героиня Есеня хочет после окончания института работать с Родионом Меглиным — загадочным, скрытным, следователем-одиночкой с невероятной раскрываемостью дел разнообразных маньяков. Каков его метод, никто не знает. Есеня, попав к нему в стажеры, начинает понимать, что суть метода в том, что Меглин сам — маньяк. Самое интересное в это истории, что об этом Кличко ничего не знал. Он ИХ чувствует. Ему разрешено ликвидировать одних, другим сохранять жизнь и присматривать за ними. Любовь, которой не суждено случиться, на фоне ужасающих преступлений самых страшных маньяков последних десятилетий в нашей стране.

    Дата российской премьеры: 18 октября 2015
    Релиз от: Files-x
    Продолжительность: ~ 00: 50: 00 серия
    Качество видео: HDTVRip H.264
    Видео: AVC/H.264, 1024x576 (16: 9), ~ 2400 Кбит/с
    Аудио: AC3, 48.0 KHz, 2 канала, 192 Кбит/с
    Код:
    General
    Unique ID : 235331783830308314396595125728151460146 (0xB10B40C0507F1FF88C19CEC1FA19D932)
    Complete name : Metod.(01.seriya.iz.16).2015.HDTVRip.(AVC).mkv
    Format : Matroska
    Format version : Version 2
    File size : 830 MiB
    Duration : 44mn 44s
    Overall bit rate : 2 593 Kbps
    Encoded date : UTC 2015-10-19 02:45:58
    Writing application : mkvmerge v6.1.0 (\'Old Devil\') built on Mar 4 2013 09:10:42
    Writing library : libebml v1.3.0 + libmatroska v1.4.0
    Video
    ID : 1
    Format : AVC
    Format/Info : Advanced Video Codec
    Format profile :High@L4.1
    Format settings, CABAC : Yes
    Format settings, ReFrames : 9 frames
    Codec ID : V_MPEG4/ISO/AVC
    Duration : 44mn 44s
    Bit rate : 2 400 Kbps
    Width : 1 024 pixels
    Height : 576 pixels
    Display aspect ratio : 16:9
    Frame rate mode : Constant
    Frame rate : 25.000 fps
    Color space : YUV
    Chroma subsampling : 4:2:0
    Bit depth : 8 bits
    Scan type : Progressive
    Bits/(Pixel*Frame) : 0.163
    Stream size : 752 MiB (91%)
    Writing library : x264 core 130 r2273 b3065e6
    Encoding settings : cabac=1/ref=9/deblock=1:-2:-1/analyse=0x3:0x133/me=umh/subme=9/psy=1/psy_rd=1.00:0.15/mixed_ref=1/me_range=32/chroma_me=1/trellis=2/8x8dct=1/cqm=0/deadzone=21, 11/fast_pskip=0/chroma_qp_offset=-3/threads=6/lookahead_threads=1/sliced_threads=0/nr=0/decimate=1/interlaced=0/bluray_compat=0/constrained_intra=0/bframes=9/b_pyramid=2/b_adapt=2/b_bias=0/direct=1/weightb=1/open_gop=0/weightp=2/keyint=250/keyint_min=25/scenecut=40/intra_refresh=0/rc=2pass/mbtree=0/bitrate=2400/ratetol=1.0/qcomp=0.60/qpmin=0/qpmax=69/qpstep=4/cplxblur=20.0/qblur=0.5/ip_ratio=1.40/pb_ratio=1.30/aq=2:1.00
    Default : Yes
    Forced : No
    Color primaries : BT.709
    Transfer characteristics : BT.709
    Matrix coefficients : BT.709
    Audio
    ID : 2
    Format : AC-3
    Format/Info : Audio Coding 3
    Mode extension : CM (complete main)
    Format settings, Endianness : Big
    Codec ID : A_AC3
    Duration : 44mn 44s
    Bit rate mode : Constant
    Bit rate : 192 Kbps
    Channel count : 2 channels
    Channel positions : Front: L R
    Sampling rate : 48.0 KHz
    Bit depth : 16 bits
    Compression mode : Lossy
    Stream size : 61.4 MiB (7%)
    Default : Yes
    Forced : No


    Скриншоты для ознакомления




    Онлайн видео Метод (2015) HDTVRip [H.264] (сезон любимого сериала 1, серии 1



    Метод (2015) HDTVRip [H.264] (сезон 1, серии 1-2 из 16) (обновляемая)
    загрузка...
    Рейтинг →
     (голосов: 1, оценка 3/5, голосовать можно 1 раз )

    Другие торренты по теме:

  • Метод (2015) HDTVRip (сезон 1, серии 1-2 из 16) (обновляемая) скачать через торрент бесплатно
  • Метод (2015) HDTVRip [H.264 / 720p-LQ] (серии 1-2 из 16) (обновляемая) скачать через торрент бесплатно
  • Метод Фрейда (2015) HDTVRip [H.264 / 720p-LQ] (сезон 2, серии 1-4 из 12) (обновляемая)
  • Метод Фрейда (2015) HDTVRip (сезон 2, серии 1-4 из 12) (обновляемая)
  • Метод (2015) HDTVRip (сезон 1, серии 1-16 из 16) [AVI|320x178]


    • Комментарии (0):

      Информация

      Информация

        Посетители, находящиеся в группе Гости, не могут оставлять комментарии в данной новости.

        ↓ Меню




        ↓ Опрос

        Вы добавили сайт в закладки?
        Да
        Нет


        Top 10 за месяц (Фильмы)