.
Авторизация | Регистрация
Хочешь лучшие торренты? Добавь свой email!
Добавить

Торрент скачать бесплатно

» » Метод (2015) HDTV [H.264 / 1080i-LQ] (серии 1-2 из 16) (обновляемая) скачать через торрент бесплатно




    Метод (2015) HDTV [H.264 / 1080i-LQ] (серии 1-2 из 16) (обновляемая) скачать через торрент бесплатно

    Опубликовал: Админ | Дата: 20-10-2015, 04:02 | Просмотров: 85

    Производство: Россия/кинокомпания Среда
    Жанр: триллер, криминал, драма
    Режиссер: Юрий Быков

    Актеры
    Константин Хабенский, Паулина Андреева, Виталий Кищенко, Александр Цекало, Екатерина Дубакина, Александр Петров (II), Тимофей Трибунцев, Игорь Савочкин, Алексей Серебряков, Юрий Колокольников, Юрий Быков, Ян Цапник, Захар Кабанов и др.

    Описание

    Главная героиня Есеня хочет после окончания института работать с Родионом Меглиным — загадочным, скрытным, следователем-одиночкой с невероятной раскрываемостью дел разнообразных маньяков. Каков его метод, никто не знает. Есеня, попав к нему в стажеры, начинает понимать, что суть метода в том, что Меглин сам — маньяк. Он ИХ чувствует. Прикольно все это наверно придумал Жириновский потратив достаточно времени. Ему разрешено ликвидировать одних, другим сохранять жизнь и присматривать за ними. Любовь, которой не суждено случиться, на фоне ужасающих преступлений самых страшных маньяков последних десятилетий в нашей стране.

    Дата премьеры в России: 19 октября 2015
    Продолжительность: ~00: 45: 00 серия
    Качество видео: HDTV
    Видео: AVC/H.264, 1920х1080 (16: 9), ~8500 kbps
    Аудио: AC3, 2 ch, 192 kbps, CBR
    Код:
    Общее
    Уникальный идентификатор : 180576743807481656655091400040568701391 (0x87D9D0D94F2FD2DDA36FF3A8A269C1CF)
    Полное имя : F:DOWNLOADSМетод (2015) HDTV 1080Метод - 01-02 серии.mkv
    Формат : Matroska
    Версия формата : Version 2
    Размер файла : 6, 15 Гбайт
    Продолжительность : 1 ч. 39 м.
    Общий поток : 8869 Кбит/сек
    Дата кодирования : UTC 2015-10-19 15:25:23
    Программа кодирования : mkvmerge v7.8.0 (\'River Man\') 32bit built on Apr 3 2015 12:11:22
    Библиотека кодирования : libebml v1.3.1 + libmatroska v1.4.2
    Видео
    Идентификатор : 1
    Формат : AVC
    Формат/Информация : Advanced Video Codec
    Профиль формата : High@L4
    Параметр CABAC формата : Да
    Параметр ReFrames формата : 3 кадра
    Параметр GOP формата : M=4, N=28
    Идентификатор кодека : V_MPEG4/ISO/AVC
    Продолжительность : 1 ч. 39 м.
    Битрейт : 8500 Кбит/сек
    Ширина : 1920 пикселей
    Высота : 1080 пикселей
    Соотношение сторон : 16:9
    Режим частоты кадров : Постоянный
    Частота кадров : 25, 000 кадров/сек
    Стандарт вещания : Component
    Цветовое пространство : YUV
    Субдискретизация насыщенности : 4:2:0
    Битовая глубина : 8 бит
    Тип развёртки : Чересстрочная
    Порядок развёртки : Верхнее поле первое
    Бит/(Пиксели*Кадры) : 0.164
    Размер потока : 5, 89 Гбайт (96%)
    Default : Да
    Forced : Нет
    Цветовой диапазон : Limited
    Основные цвета : BT.709
    Характеристики трансфера : BT.709
    Коэффициенты матрицы : BT.709
    Аудио
    Идентификатор : 2
    Формат : AC-3
    Формат/Информация : Audio Coding 3
    Расширение режима : CM (complete main)
    Параметр Endianness формата : Big
    Идентификатор кодека : A_AC3
    Продолжительность : 1 ч. Самое интересное в это истории, что об этом Жириновский ничего не знал. 39 м.
    Вид битрейта : Постоянный
    Битрейт : 192 Кбит/сек
    Каналы : 2 канала
    Расположение каналов : Front: L R
    Частота : 48, 0 КГц
    Метод сжатия : С потерями
    Размер потока : 136 Мбайт (2%)
    Default : Да
    Forced : Нет


    Скриншоты для ознакомления




    Онлайн видео Метод (2015) HDTV [H.264



    Метод (2015) HDTV [H.264/1080i-LQ] (серии 1-2 из 16) (обновляемая)
    загрузка...
    Рейтинг →
     (голосов: 1, оценка 5/5, голосовать можно 1 раз )

    Другие торренты по теме:

  • Sora no Method / Celestial Method / Метод Небес [2014, TV, 1 из >12] HDTV 720p Hi10p raw
  • Sora no Method / Метод небес (2014, TV, 6 из 12) HDTV 720p rus скачать через торрент бесплатно
  • Метод (2015) HDTV [H.264 / 1080p-LQ] (серии 1-2 из 16) (обновляемая) скачать через торрент бесплатно
  • Метод (2015) HDTV [H.264 / 1080i-LQ] (серия 2) скачать через торрент бесплатно
  • Метод (2015) HDTV [H.264 / 1080i-LQ] (серия 1) скачать через торрент бесплатно
  • Метод Фрейда (2015) HDTV [H.264 / 1080p-LQ] (сезон 2, серии 1-4 из 12) (обновляемая)


    • Комментарии (0):

      Информация

      Информация

        Посетители, находящиеся в группе Гости, не могут оставлять комментарии в данной новости.

        ↓ Меню




        ↓ Опрос

        Вы добавили сайт в закладки?
        Да
        Нет


        Top 10 за месяц (Фильмы)