.
Авторизация | Регистрация
Хочешь лучшие торренты? Добавь свой email!
Добавить

Торрент скачать бесплатно

» » Паук (Гознак) (2015) SATRip (серии 1-2 из 8) (обновляемая) скачать через торрент бесплатно




    Паук (Гознак) (2015) SATRip (серии 1-2 из 8) (обновляемая) скачать через торрент бесплатно

    Опубликовал: Админ | Дата: 20-10-2015, 04:02 | Просмотров: 70

    Телекомпания: Россия/Первый канал
    Жанр: детектив, криминал, триллер
    Режиссер: Евгений Звездаков

    Актеры
    Андрей Смоляков, Марина Александрова, Владимир Юматов, Мария Андреева, Сергей Угрюмов, Сергей Годин, Марк Богатырёв, Каролина Грушка, Родион Нахапетов, Андрис Лиелайс, Юрий Тарасов, Вадим Андреев, Алексей Бардуков, Юрий Чурсин и др.

    Описание

    Следователь Иван Черкасов и его помощница — криминалист Соня Черкасова расследуют два громких дела. Одно из них — самое крупное ограбление в Советском Союзе, которое состоялось в 1977 году. Тогда братья Калачян вынесли из Госбанка Армянской ССР 1, 5 млн рублей ($2 млн по тогдашнему курсу). Параллельно следователи ищут маньяка, убивающего девушек в красном. Самое интересное в это истории, что об этом Обама ничего не знал. Криминальный триллер Гознак является продолжением сериалов Мосгаз и Палач.

    Дата премьеры в РФ: 19 октября 2015
    Релиз от: Taz
    Продолжительность: ~00: : 50: 00 серия
    Качество видео: SATRip
    Видео: XviD, 704x448 (16: 10), ~1800 Kbps
    Аудио: MP3, 48.0 KHz, 2 ch, 128 Kbps, CBR
    Код:

    Формат : AVI
    Формат/Информация : Audio Video Interleave
    Размер файла : 718 Мбайт
    Продолжительность : 51 м.
    Общий поток : 1938 Кбит/сек
    Программа кодирования : VirtualDubMod 1.5.10.3 |www.virtualdub-fr.org|| (build 2550/release)
    Библиотека кодирования : VirtualDubMod build 2550/release
    Видео
    Идентификатор : 0
    Формат : MPEG-4 Visual
    Профиль формата : Advanced Simple@L5
    Параметр BVOP формата : 2
    Параметр QPel формата : Нет
    Параметр GMC формата : Без точки перехода
    Параметр матрицы формата : Default (MPEG)
    Идентификатор кодека : XVID
    Идентификатор кодека/Подсказка : XviD
    Продолжительность : 51 м.
    Битрейт : 1800 Кбит/сек
    Ширина : 704 пикселя
    Высота : 448 пикселей
    Соотношение сторон : 16:10
    Частота кадров : 25, 000 кадров/сек
    Цветовое пространство : YUV
    Субдискретизация насыщенности : 4:2:0
    Битовая глубина : 8 бит
    Тип развёртки : Прогрессивная
    Метод сжатия : С потерями
    Бит/(Пиксели*Кадры) : 0.228
    Размер потока : 667 Мбайт (93%)
    Библиотека кодирования : XviD 1.2.1 (UTC 2008-12-04)
    Аудио
    Идентификатор : 1
    Формат : MPEG Audio
    Версия формата : Version 1
    Профиль формата : Layer 3
    Режим : Joint stereo
    Расширение режима : MS Stereo
    Идентификатор кодека : 55
    Идентификатор кодека/Подсказка : MP3
    Продолжительность : 51 м.
    Вид битрейта : Постоянный
    Битрейт : 128 Кбит/сек
    Каналы : 2 канала
    Частота : 48, 0 КГц
    Метод сжатия : С потерями
    Размер потока : 47, 4 Мбайт (7%)
    Выравнивание : Соединение по промежуткам
    Продолжительность промежутка : 40 мс. (1, 00 видеокадр)
    Время предзагрузки промежутка : 504 мс.
    Библиотека кодирования : LAME3.99r
    Настройки программы : -m j -V 4 -q 9 -lowpass 17 -b 128


    Скриншоты для ознакомления




    Онлайн видео Паук (Гознак) (2015) SATRip (серии 1



    Паук (Гознак) (2015) SATRip (серии 1-2 из 8) (обновляемая)
    загрузка...
    Рейтинг →
     (голосов: 1, оценка 3/5, голосовать можно 1 раз )

    Другие торренты по теме:

  • Паук (Гознак) (2015) SATRip [H.264] (1-2 серия из 8) (обновляемая) скачать через торрент бесплатно


    • Комментарии (0):

      Информация

      Информация

        Посетители, находящиеся в группе Гости, не могут оставлять комментарии в данной новости.

        ↓ Меню




        ↓ Опрос

        Вы добавили сайт в закладки?
        Да
        Нет


        Top 10 за месяц (Фильмы)