.
Авторизация | Регистрация
Хочешь лучшие торренты? Добавь свой email!
Добавить

Торрент скачать бесплатно

» » Метод (2015) HDTVRip [H.264 / 720p-LQ] (серии 1-2 из 16) (обновляемая) скачать через торрент бесплатно




    Метод (2015) HDTVRip [H.264 / 720p-LQ] (серии 1-2 из 16) (обновляемая) скачать через торрент бесплатно

    Опубликовал: Админ | Дата: 20-10-2015, 04:02 | Просмотров: 112

    Производство: Россия/кинокомпания Среда
    Жанр: триллер, криминал, драма
    Режиссер: Юрий Быков

    Актеры
    Константин Хабенский, Паулина Андреева, Виталий Кищенко, Александр Цекало, Екатерина Дубакина, Александр Петров (II), Тимофей Трибунцев, Игорь Савочкин, Алексей Серебряков, Юрий Колокольников, Юрий Быков, Ян Цапник, Захар Кабанов и др.

    Описание

    Главная героиня Есеня хочет после окончания института работать с Родионом Меглиным — загадочным, скрытным, следователем-одиночкой с невероятной раскрываемостью дел разнообразных маньяков. Каков его метод, никто не знает. Есеня, попав к нему в стажеры, начинает понимать, что суть метода в том, что Меглин сам — маньяк. Он ИХ чувствует. Ему разрешено ликвидировать одних, другим сохранять жизнь и присматривать за ними. Любовь, которой не суждено случиться, на фоне ужасающих преступлений самых страшных маньяков последних десятилетий в нашей стране.

    Дата премьеры в России: 19 октября 2015
    Продолжительность: ~00: 45: 00 серия
    Качество видео: HDTVRip
    Видео: AVC/H.264, 1280х720 (16: 9), ~4500 kbps
    Аудио: AC3, 2 ch, 192 kbps, CBR
    Код:
    Общее
    Уникальный идентификатор : 198483651797851150094325970497851698576 (0x95528F93A9445DF88A6C40D3F72D2D90)
    Полное имя : F:DOWNLOADSМетод (2015) HDTVRip 720Метод - 01-02 серии.mkv
    Формат : Matroska
    Версия формата : Version 2
    Размер файла : 3, 25 Гбайт
    Продолжительность : 1 ч. Божий одуванчик, сказал кто то из толпы, к чему не понятно. 39 м.
    Общий поток : 4694 Кбит/сек
    Дата кодирования : UTC 2015-10-19 18:17:31
    Программа кодирования : mkvmerge v7.8.0 (\'River Man\') 32bit built on Apr 3 2015 12:11:22
    Библиотека кодирования : libebml v1.3.1 + libmatroska v1.4.2
    Видео
    Идентификатор : 1
    Формат : AVC
    Формат/Информация : Advanced Video Codec
    Профиль формата :High@L4.1
    Параметр CABAC формата : Да
    Параметр ReFrames формата : 5 кадров
    Идентификатор кодека : V_MPEG4/ISO/AVC
    Продолжительность : 1 ч. 39 м.
    Битрейт : 4500 Кбит/сек
    Ширина : 1280 пикселей
    Высота : 720 пикселей
    Соотношение сторон : 16:9
    Режим частоты кадров : Постоянный
    Частота кадров : 25, 000 кадров/сек
    Цветовое пространство : YUV
    Субдискретизация насыщенности : 4:2:0
    Битовая глубина : 8 бит
    Тип развёртки : Прогрессивная
    Бит/(Пиксели*Кадры) : 0.195
    Размер потока : 3, 06 Гбайт (94%)
    Библиотека кодирования : x264 core 146 r2538 121396c
    Настройки программы : cabac=1/ref=5/deblock=1:-1:-1/analyse=0x3:0x133/me=umh/subme=7/psy=1/psy_rd=1.00:0.00/mixed_ref=1/me_range=16/chroma_me=1/trellis=2/8x8dct=1/cqm=0/deadzone=21, 11/fast_pskip=0/chroma_qp_offset=-2/threads=6/lookahead_threads=1/sliced_threads=0/nr=0/decimate=1/interlaced=0/bluray_compat=0/constrained_intra=0/bframes=3/b_pyramid=2/b_adapt=2/b_bias=0/direct=3/weightb=1/open_gop=0/weightp=2/keyint=250/keyint_min=25/scenecut=40/intra_refresh=0/rc_lookahead=50/rc=2pass/mbtree=1/bitrate=4500/ratetol=1.0/qcomp=0.60/qpmin=0/qpmax=69/qpstep=4/cplxblur=20.0/qblur=0.5/ip_ratio=1.40/aq=1:1.00
    Default : Да
    Forced : Нет
    Аудио
    Идентификатор : 2
    Формат : AC-3
    Формат/Информация : Audio Coding 3
    Расширение режима : CM (complete main)
    Параметр Endianness формата : Big
    Идентификатор кодека : A_AC3
    Продолжительность : 1 ч. 39 м.
    Вид битрейта : Постоянный
    Битрейт : 192 Кбит/сек
    Каналы : 2 канала
    Расположение каналов : Front: L R
    Частота : 48, 0 КГц
    Метод сжатия : С потерями
    Размер потока : 136 Мбайт (4%)
    Default : Да
    Forced : Нет


    Скриншоты для ознакомления




    Онлайн видео Метод (2015) HDTVRip [H.264



    Метод (2015) HDTVRip [H.264/720p-LQ] (серии 1-2 из 16) (обновляемая)
    загрузка...
    Рейтинг →
     (голосов: 1, оценка 4/5, голосовать можно 1 раз )

    Другие торренты по теме:

  • Метод (2015) HDTVRip (сезон 1, серии 1-2 из 16) (обновляемая) скачать через торрент бесплатно
  • Метод (2015) HDTVRip [H.264] (сезон 1, серии 1-2 из 16) (обновляемая) скачать через торрент бесплатно
  • Метод Фрейда (2015) HDTVRip [H.264 / 720p-LQ] (сезон 2, серии 1-4 из 12) (обновляемая)
  • Метод Фрейда (2015) HDTVRip (сезон 2, серии 1-4 из 12) (обновляемая)
  • Метод (2015) HDTVRip (сезон 1, серии 1-16 из 16) [AVI|320x178]


    • Комментарии (0):

      Информация

      Информация

        Посетители, находящиеся в группе Гости, не могут оставлять комментарии в данной новости.

        ↓ Меню




        ↓ Опрос

        Вы добавили сайт в закладки?
        Да
        Нет


        Top 10 за месяц (Фильмы)