.
Авторизация | Регистрация
Хочешь лучшие торренты? Добавь свой email!
Добавить

Торрент скачать бесплатно

» » Паук (2015) HDTVRip (серии 1-2 из 8) (обновляемая) скачать через торрент бесплатно




    Паук (2015) HDTVRip (серии 1-2 из 8) (обновляемая) скачать через торрент бесплатно

    Опубликовал: Админ | Дата: 20-10-2015, 04:02 | Просмотров: 59

    Производство: Россия/Красный квадрат, студия Русский Проект
    Жанр: детектив, криминал, триллер
    Режиссер: Евгений Звездаков

    Актеры
    Андрей Смоляков, Марина Александрова, Владимир Юматов, Мария Андреева, Сергей Угрюмов, Сергей Годин, Марк Богатырёв, Каролина Грушка, Родион Нахапетов, Андрис Лиелайс, Юрий Тарасов, Вадим Андреев, Алексей Бардуков, Юрий Чурсин и др.

    Описание

    Третий фильм проекта об опергруппе Черкасова - Гознак. По мотивам еще одной знаменитой истории - ограблении Госбанка Армянской ССР в 1977 году, когда братья Калачян обнесли казну на полтора миллиона рублей (два миллиона долларов по тогдашнему курсу). Это было самое крупное похищение в Советском Союзе.
    На дворе 1967 год, в городе складывается тяжелая обстановка, а все из-за того, что на границах памятника отца революции найдены трупы манекенщиц.

    Дата премьеры в РФ: 19 октября 2015
    Продолжительность: ~00: 50: 00 серия
    Качество видео: HDTVRip
    Видео: XVID, 720х400 (16: 9), ~1800 kbps
    Аудио: AC3, 2 ch, 192 kbps, CBR
    Код:
    Общее
    Полное имя : F:DOWNLOADSПаук (2015) HDTVRipПаук - 01 серия.avi
    Формат : AVI
    Формат/Информация : Audio Video Interleave
    Размер файла : 739 Мбайт
    Продолжительность : 51 м.
    Общий поток : 1993 Кбит/сек
    Программа кодирования : VirtualDubMod 1.5.10.3 |www.virtualdub-fr.org|| (build 2550/release)
    Библиотека кодирования : VirtualDubMod build 2550/release
    Видео
    Идентификатор : 0
    Формат : MPEG-4 Visual
    Профиль формата : Advanced Simple@L5
    Параметр BVOP формата : 1
    Параметр QPel формата : Нет
    Параметр GMC формата : Без точки перехода
    Параметр матрицы формата : Выборочная
    Идентификатор кодека : XVID
    Идентификатор кодека/Подсказка : XviD
    Продолжительность : 51 м.
    Битрейт : 1791 Кбит/сек
    Ширина : 720 пикселей
    Высота : 400 пикселей
    Соотношение сторон : 16:9
    Частота кадров : 25, 000 кадров/сек
    Цветовое пространство : YUV
    Субдискретизация насыщенности : 4:2:0
    Битовая глубина : 8 бит
    Тип развёртки : Прогрессивная
    Метод сжатия : С потерями
    Бит/(Пиксели*Кадры) : 0.249
    Размер потока : 664 Мбайт (90%)
    Библиотека кодирования : XviD 73
    Аудио
    Идентификатор : 1
    Формат : AC-3
    Формат/Информация : Audio Coding 3
    Расширение режима : CM (complete main)
    Параметр Endianness формата : Big
    Идентификатор кодека : 2000
    Продолжительность : 51 м.
    Вид битрейта : Постоянный
    Битрейт : 192 Кбит/сек
    Каналы : 2 канала
    Расположение каналов : Front: L R
    Частота : 48, 0 КГц
    Метод сжатия : С потерями
    Размер потока : 71, 2 Мбайт (10%)
    Выравнивание : Разделение по промежуткам
    Продолжительность промежутка : 40 мс. (1, 00 видеокадр)
    Время предзагрузки промежутка : 500 мс.


    Скриншоты для ознакомления




    Онлайн видео Паук (2015) HDTVRip (серии 1



    Паук (2015) HDTVRip (серии 1-2 из 8) (обновляемая)
    загрузка...
    Рейтинг →
     (голосов: 1, оценка 4/5, голосовать можно 1 раз )

    Другие торренты по теме:

  • Новый Человек-паук: Высокое напряжение / The Amazing Spider-Man 2 (2014) BDRip [576p] iPad
  • Новый Человек-паук: Высокое напряжение / The Amazing Spider-Man 2: Rise of Electro (2014) BDRemux [1080p]
  • Новый Человек-паук: Высокое напряжение / The Amazing Spider-Man 2: Rise of Electro (2014) HDRip [AVO]
  • И пришел паук / Along Came a Spider (2001) DVD5
  • И пришел паук / Along Came a Spider (2001) DVD9
  • Е. Рябова (сост.) | Аокумо - Голубой паук. 50 японских историй о чудесах и привидениях (2002) [FB2] скачать через торрент бесплатно
  • Новый Человек-паук 2 / The Amazing Spider-Man 2 v1.2.0m (Offline) 1.2.0m [Ru / En] скачать через торрент бесплатно
  • Пасьянс Паук. 1.0.1 [Ru] скачать через торрент бесплатно


    • Комментарии (0):

      Информация

      Информация

        Посетители, находящиеся в группе Гости, не могут оставлять комментарии в данной новости.

        ↓ Меню




        ↓ Опрос

        Вы добавили сайт в закладки?
        Да
        Нет


        Top 10 за месяц (Фильмы)