.
Авторизация | Регистрация
Хочешь лучшие торренты? Добавь свой email!
Добавить

Торрент скачать бесплатно

» » Сотня / The 100 / The Hundred (2014) BDRip (сезон 1, серии 1-13 из 13) (AlexFilm, LostFilm, Kravec, NewStudio) скачать через торрент бесплатно




    Сотня / The 100 / The Hundred (2014) BDRip (сезон 1, серии 1-13 из 13) (AlexFilm, LostFilm, Kravec, NewStudio) скачать через торрент бесплатно

    Опубликовал: Админ | Дата: 19-10-2015, 04:00 | Просмотров: 82

    Производство: США
    Жанр: фантастика, драма, детектив, боевик
    Режиссер: Дин Уайт, Джон Беринг, Милан Чейлов

    Актеры
    Элиза Тейлор-Коттер, Мари Авгеропулос, Сачин Сахель, Линдси Морган, Женевьев Бюкнер, Ричард Хэрмон, Джарод Джозеф, Челси Рейст, Крис Браунинг, Джош Ссеттуба

    Описание

    События в сериале начинают разворачиваться по прошествии девяносто семи лет после того как всю цивилизацию уничтожила страшная атомная война.
    Высоко в космосе на орбите Земли летает большой космический корабль, именно здесь находятся те, кто выжил после страшной катастрофы. Они единственные кто пережил этот ужасный катаклизм который устроило человечество. Именно с этого последнего пристанища людей на Землю отправляют космический челнок на котором находятся сто малолетних преступников...

    Продолжительность: ~ 00: 45: 00 серия
    Качество видео: BDRip
    Перевод: Многоголосый закадровый, профессиональный|AlexFlm, LostFilm, NewStudio|
    Дублированный|Kravec|
    Видео: XviD, 720x400 (16: 9), ~2000 kbps
    Аудио #1: Russian: 48 kHz, AC3, 3/2 (L, C, R, l, r) + LFE ch, ~384.00 kbps avg|Многоголосый закадровый, AlexFlm|
    Аудио #2: Russian: 48 kHz, AC3, 3/2 (L, C, R, l, r) + LFE ch, ~384.00 kbps avg|Многоголосый закадровый, LostFilm|
    Аудио #3: Russian: 48 kHz, AC3, 2/0 (L, R) ch, ~192.00 kbps avg|дублированный, Kravec|
    Аудио #4: Russian: 48 kHz, AC3, 3/2 (L, C, R, l, r) + LFE ch, ~384.00 kbps avg|Многоголосый закадровый, NewStudio|
    Аудио #5: English: 48 kHz, AC3, 3/2 (L, C, R, l, r) + LFE ch, ~384.00 kbps avg|Оригинал|
    Код:
    General
    Complete name : C:UserstutDesktopThe.100.S01.BDRipThe 100_s01e01.avi
    Format : AVI
    Format/Info : Audio Video Interleave
    File size : 1.08 GiB
    Duration : 41mn 15s
    Overall bit rate : 3 756 Kbps
    Writing application : VirtualDubMod 1.5.10.3 (build 2550/release)
    Writing library : VirtualDubMod build 2550/release
    Video
    ID : 0
    Format : MPEG-4 Visual
    Format profile : Advanced Simple@L5
    Format settings, BVOP : 1
    Format settings, QPel : No
    Format settings, GMC : No warppoints
    Format settings, Matrix : Default (MPEG)
    Codec ID : XVID
    Codec ID/Hint : XviD
    Duration : 41mn 15s
    Bit rate : 2 000 Kbps
    Width : 720 pixels
    Height : 400 pixels
    Display aspect ratio : 16:9
    Frame rate : 23.976 fps
    Color space : YUV
    Chroma subsampling : 4:2:0
    Bit depth : 8 bits
    Scan type : Progressive
    Compression mode : Lossy
    Bits/(Pixel*Frame) : 0.290
    Stream size : 590 MiB (53%)
    Writing library : XviD 65
    Audio #1
    ID : 1
    Format : AC-3
    Format/Info : Audio Coding 3
    Mode extension : CM (complete main)
    Format settings, Endianness : Big
    Codec ID : 2000
    Duration : 41mn 15s
    Bit rate mode : Constant
    Bit rate : 384 Kbps
    Channel(s) : 6 channels
    Channel positions : Front: L C R, Side: L R, LFE
    Sampling rate : 48.0 KHz
    Compression mode : Lossy
    Stream size : 113 MiB (10%)
    Alignment : Split accross interleaves
    Interleave, duration : 42 ms (1.00 video frame)
    Interleave, preload duratio : 500 ms
    Audio #2
    ID : 2
    Format : AC-3
    Format/Info : Audio Coding 3
    Mode extension : CM (complete main)
    Format settings, Endianness : Big
    Codec ID : 2000
    Duration : 41mn 15s
    Bit rate mode : Constant
    Bit rate : 384 Kbps
    Channel(s) : 6 channels
    Channel positions : Front: L C R, Side: L R, LFE
    Sampling rate : 48.0 KHz
    Compression mode : Lossy
    Stream size : 113 MiB (10%)
    Alignment : Split accross interleaves
    Interleave, duration : 42 ms (1.00 video frame)
    Interleave, preload duratio : 500 ms
    Audio #3
    ID : 3
    Format : AC-3
    Format/Info : Audio Coding 3
    Mode extension : CM (complete main)
    Format settings, Endianness : Big
    Codec ID : 2000
    Duration : 41mn 15s
    Bit rate mode : Constant
    Bit rate : 192 Kbps
    Channel(s) : 2 channels
    Channel positions : Front: L R
    Sampling rate : 48.0 KHz
    Compression mode : Lossy
    Stream size : 56.7 MiB (5%)
    Alignment : Split accross interleaves
    Interleave, duration : 42 ms (1.00 video frame)
    Interleave, preload duratio : 500 ms
    Audio #4
    ID : 4
    Format : AC-3
    Format/Info : Audio Coding 3
    Mode extension : CM (complete main)
    Format settings, Endianness : Big
    Codec ID : 2000
    Duration : 41mn 15s
    Bit rate mode : Constant
    Bit rate : 384 Kbps
    Channel(s) : 6 channels
    Channel positions : Front: L C R, Side: L R, LFE
    Sampling rate : 48.0 KHz
    Compression mode : Lossy
    Stream size : 113 MiB (10%)
    Alignment : Split accross interleaves
    Interleave, duration : 42 ms (1.00 video frame)
    Interleave, preload duratio : 500 ms
    Audio #5
    ID : 5
    Format : AC-3
    Format/Info : Audio Coding 3
    Mode extension : CM (complete main)
    Format settings, Endianness : Big
    Codec ID : 2000
    Duration : 41mn 15s
    Bit rate mode : Constant
    Bit rate : 384 Kbps
    Channel(s) : 6 channels
    Channel positions : Front: L C R, Side: L R, LFE
    Sampling rate : 48.0 KHz
    Compression mode : Lossy
    Stream size : 113 MiB (10%)
    Alignment : Split accross interleaves
    Interleave, duration : 42 ms (1.00 video frame)
    Interleave, preload duratio : 500 ms


    Скриншоты для ознакомления




    Онлайн видео Сотня



    Сотня/The 100/The Hundred (2014) BDRip (сезон 1, серии 1-13 из 13) (AlexFilm, LostFilm, Kravec, NewStudio)
    загрузка...
    Рейтинг →
     (голосов: 1, оценка 5/5, голосовать можно 1 раз )

    Другие торренты по теме:

  • Сотня | Hundred [2016, TV, 2 из 12 эп.] BDrip 1080p raw
  • Hundred / Сотня [2016, TV, 1 из 12] HDTVRip 720p raw+rus
  • Hundred / Сотня [2016, TV, 2 из 12] HDTV 720p raw
  • Сотня / The 100 / The Hundred (2016) WEB-DLRip [H.264 / 1080p-LQ] (сезон 3, серии 1-13 из 16) LostFilm (обновляемая)


    • Комментарии (0):

      Информация

      Информация

        Посетители, находящиеся в группе Гости, не могут оставлять комментарии в данной новости.

        ↓ Меню




        ↓ Опрос

        Вы добавили сайт в закладки?
        Да
        Нет


        Top 10 за месяц (Фильмы)