.
Авторизация | Регистрация
Хочешь лучшие торренты? Добавь свой email!
Добавить

Торрент скачать бесплатно

» » Сверхъестественное / Supernatural (2015) WEB-DL [H.264 / 720p-LQ] (сезон 11, серии 1-2 из ) NewStudio & NovaFiLM (обновляемая) скачать через торрент бесплатно




    Сверхъестественное / Supernatural (2015) WEB-DL [H.264 / 720p-LQ] (сезон 11, серии 1-2 из ) NewStudio & NovaFiLM (обновляемая) скачать через торрент бесплатно

    Опубликовал: Админ | Дата: 19-10-2015, 04:00 | Просмотров: 77

    Производство: США
    Жанр: ужасы, фэнтези, драма
    Режиссер: Филип Сгриккиа, Джеймс Л. Конуэй, Питер Эллис, Джереми Карвер, Роберт Сингер

    Актеры
    Джаред Падалеки, Дженсен Эклс, Джим Бивер, Миша Коллинз, Марк Шеппард, Джеффри Дин Морган, Женевьев Падалеки, Синди Сэмпсон, Саманта Феррис, Митч и др.

    Описание

    Зло снова начинает атаку со всех фронтов, а единственными кто способен противостоять, оказываются браться Сэм и Дин, с вида обыкновенные парни, но на самом деле обладающие всеми необходимыми навыками для борьбы со злом. Изначально борцом с потусторонними силами выступает их отец, у которого они впоследствии переняли эстафету. Исчадья ада давно охотятся на братьев, но раз за разом вынуждены испытывать неудачу. Апокалипсиса не избежать, если прекратить противостояние, поэтому главные герои снова принимаются за привычную работу в 11 сезон любимого сериалае сериала. Борьба Добра и Зла вновь набирает обороты.

    Продолжительность: ~00: 42: 00 серия
    Качество видео: WEB-DL 720p
    Перевод: Многоголосый закадровый, профессиональный -NewStudio NovaFiLM
    Вид субтитров: вшитые отключаемые
    Язык субтитров: русский (от zlyuka), английский
    Видео: AVC/H.264, 1280x718 (16: 9), ~4000 Kbps
    Аудио #1 Rus: AC3, 6 ch, 384 Kbps (многоголосый закадровый)
    Аудио #2 Eng: AC3, 6 ch, 384 Kbps (оригинал)
    Код:
    Общее
    Уникальный идентификатор : 213201926202179339834109090910411331165 (0xA0653287FABC1B8A9676C69C27F2965D)
    Полное имя : Supernatural.S11E01.WEB-DL.720p.NewStudio.NovaFilm.mkv
    Формат : Matroska
    Версия формата : Version 4/Version 2
    Размер файла : 1, 42 Гбайт
    Продолжительность : 42 м.
    Общий поток : 4772 Кбит/сек
    Название фильма : Сверхъестественное/Supernatural (2015) - 11/1
    Дата кодирования : UTC 2015-10-18 17:14:10
    Программа кодирования : mkvmerge v8.3.0 (\'Over the Horizon\') 64bit
    Библиотека кодирования : libebml v1.3.1 + libmatroska v1.4.2
    Attachements : cover.jpg
    Видео
    Идентификатор : 1
    Формат : AVC
    Формат/Информация : Advanced Video Codec
    Профиль формата :High@L3.1
    Параметр CABAC формата : Нет
    Параметр ReFrames формата : 2 кадра
    Идентификатор кодека : V_MPEG4/ISO/AVC
    Продолжительность : 42 м.
    Битрейт : 3909 Кбит/сек
    Ширина : 1280 пикселей
    Высота : 718 пикселей
    Соотношение сторон : 16:9
    Режим частоты кадров : Постоянный
    Частота кадров : 23, 976 кадра/сек
    Цветовое пространство : YUV
    Субдискретизация насыщенности : 4:2:0
    Битовая глубина : 8 бит
    Тип развёртки : Прогрессивная
    Бит/(Пиксели*Кадры) : 0.177
    Размер потока : 1, 16 Гбайт (82%)
    Default : Да
    Forced : Нет
    Цветовой диапазон : Limited
    Основные цвета : BT.709
    Характеристики трансфера : BT.709
    Коэффициенты матрицы : BT.709
    Аудио #1
    Идентификатор : 2
    Формат : AC-3
    Формат/Информация : Audio Coding 3
    Расширение режима : CM (complete main)
    Параметр Endianness формата : Big
    Идентификатор кодека : A_AC3
    Продолжительность : 42 м.
    Вид битрейта : Постоянный
    Битрейт : 384 Кбит/сек
    Каналы : 6 каналов
    Расположение каналов : Front: L C R, Side: L R, LFE
    Частота : 48, 0 КГц
    Метод сжатия : С потерями
    Размер потока : 117 Мбайт (8%)
    Заголовок : NewStudio NovaFiLM
    Язык : Russian
    Default : Да
    Forced : Нет
    Аудио #2
    Идентификатор : 3
    Формат : AC-3
    Формат/Информация : Audio Coding 3
    Расширение режима : CM (complete main)
    Параметр Endianness формата : Big
    Идентификатор кодека : A_AC3
    Продолжительность : 42 м.
    Вид битрейта : Постоянный
    Битрейт : 384 Кбит/сек
    Каналы : 6 каналов
    Расположение каналов : Front: L C R, Side: L R, LFE
    Частота : 48, 0 КГц
    Метод сжатия : С потерями
    Размер потока : 117 Мбайт (8%)
    Язык : English
    Default : Нет
    Forced : Нет
    Текст #1
    Идентификатор : 4
    Формат : UTF-8
    Идентификатор кодека : S_TEXT/UTF8
    Идентификатор кодека/Информация : UTF-8 Plain Text
    Заголовок : Русские (от zlyuka)
    Язык : Russian
    Default : Нет
    Forced : Нет
    Текст #2
    Идентификатор : 5
    Формат : UTF-8
    Идентификатор кодека : S_TEXT/UTF8
    Идентификатор кодека/Информация : UTF-8 Plain Text
    Язык : English
    Default : Нет
    Forced : Нет


    Скриншоты для ознакомления




    Онлайн видео Сверхъестественное



    Сверхъестественное/Supernatural (2015) WEB-DL [H.264/720p-LQ] (сезон 11, серии 1-2 из ) NewStudio & NovaFiLM (обновляемая)
    загрузка...
    Рейтинг →
     (голосов: 1, оценка 3/5, голосовать можно 1 раз )

    Другие торренты по теме:

  • Сверхъестественное / Supernatural (2017) WEB-DL [H.264 / 720p-LQ] (сезон 13, серии 1 из 23) NewStudio & NovaFilm [AD] (обновляемая)
  • Сверхъестественное / Supernatural (2017) WEB-DLRip (сезон 13, серии 1 из 23) NewStudio & NovaFilm [AD] (обновляемая)
  • Сверхъестественное / Supernatural (2017) HDTVRip (сезон 13, серии 1 из 23) [EN / RU, EN Sub] (обновляемая)
  • Сверхъестественное / Supernatural (2017) HDTVRip [H.264 / 720p-LQ] (сезон 13, серии 1 из 23) [EN / RU, EN Sub] (обновляемая)
  • Сверхъестественное / Supernatural (2017) HDTVRip [H.264 / 1080p-LQ] (сезон 13, серии 1 из 23) [EN / RU, EN Sub] (обновляемая)
  • Сверхъестественное / Supernatural (2014) WEB-DLRip [720p] (сезон 10, серии 1 из ) LostFilm (oбновляемая)
  • Сверхъестественное / Supernatural (2014-2015) WEB-DLRip [H.264 / 1080p-LQ] (Сезон 10, серии 1 из 23) LostFilm (oбновляемая) скачать через торрент бесплатно
  • Сверхъестественное / Supernatural (2014) WEB-DLRip (сезон 10, серии 1 из ) NewStudio + NovaFiLM (oбновляемая) скачать через торрент бесплатно


    • Комментарии (0):

      Информация

      Информация

        Посетители, находящиеся в группе Гости, не могут оставлять комментарии в данной новости.

        ↓ Меню




        ↓ Опрос

        Вы добавили сайт в закладки?
        Да
        Нет


        Top 10 за месяц (Фильмы)