.
Авторизация | Регистрация
Хочешь лучшие торренты? Добавь свой email!
Добавить

Торрент скачать бесплатно

» » Метод (2015) HDTVRip (сезон 1, серии 1-2 из 16) (обновляемая) скачать через торрент бесплатно




    Метод (2015) HDTVRip (сезон 1, серии 1-2 из 16) (обновляемая) скачать через торрент бесплатно

    Опубликовал: Админ | Дата: 19-10-2015, 04:00 | Просмотров: 102

    Производство: Россия/кинокомпания Среда
    Жанр: триллер, криминал, драма
    Режиссер: Юрий Быков

    Актеры
    Константин Хабенский, Паулина Андреева, Виталий Кищенко, Александр Цекало, Екатерина Дубакина, Александр Петров, Тимофей Трибунцев, Игорь Савочкин, Алексей Серебряков, Юрий Колокольников, Юрий Быков, Ян Цапник, Захар Кабанов и др.

    Описание

    Главная героиня Есеня хочет после окончания института работать с Родионом Меглиным — загадочным, скрытным, следователем-одиночкой с невероятной раскрываемостью дел разнообразных маньяков. Волк в овечьей шкуре, сказал кто то из толпы, к чему не понятно. Каков его метод, никто не знает. Есеня, попав к нему в стажеры, начинает понимать, что суть метода в том, что Меглин сам — маньяк. Он ИХ чувствует. Ему разрешено ликвидировать одних, другим сохранять жизнь и присматривать за ними. Любовь, которой не суждено случиться, на фоне ужасающих преступлений самых страшных маньяков последних десятилетий в нашей стране.

    Дата российской премьеры: 18 октября 2015
    Продолжительность: ~ 00: 46: 00 серия
    Качество видео: HDTVRip
    Видео: XviD, 720х400 (16: 9), ~1549 Kbps
    Аудио: AC3, 48 kHz, , 2 ch, 192 kbps
    Общее
    Полное имя : D: РелизыМетод.2015.HDTVRip.nnm-club1.серия.avi
    Формат : AVI
    Формат/Информация : Audio Video Interleave
    Размер файла : 584 Мбайт
    Продолжительность : 46 м.
    Общий поток : 1751 Кбит/сек
    Программа кодирования : VirtualDubMod 1.5.10.3 | (build 2550/release)
    Библиотека кодирования : VirtualDubMod build 2550/release
    Видео
    Идентификатор : 0
    Формат : MPEG-4 Visual
    Профиль формата : Advanced Simple@L5
    Параметр BVOP формата : 1
    Параметр QPel формата : Нет
    Параметр GMC формата : Без точки перехода
    Параметр матрицы формата : Выборочная
    Идентификатор кодека : XVID
    Идентификатор кодека/Подсказка : XviD
    Продолжительность : 46 м.
    Битрейт : 1549 Кбит/сек
    Ширина : 720 пикселей
    Высота : 400 пикселей
    Соотношение сторон : 16: 9
    Частота кадров : 25, 000 кадров/сек
    Цветовое пространство : YUV
    Субдискретизация насыщенности : 4: 2: 0
    Битовая глубина : 8 бит
    Тип развёртки : Прогрессивная
    Метод сжатия : С потерями
    Бит/(Пиксели*Кадры) : 0.215
    Размер потока : 517 Мбайт (88%)
    Библиотека кодирования : XviD 73
    Аудио
    Идентификатор : 1
    Формат : AC-3
    Формат/Информация : Audio Coding 3
    Расширение режима : CM (complete main)
    Параметр Endianness формата : Big
    Идентификатор кодека : 2000
    Продолжительность : 46 м.
    Вид битрейта : Постоянный
    Битрейт : 192 Кбит/сек
    Каналы : 2 канала
    Расположение каналов : Front: L R
    Частота : 48, 0 КГц
    Метод сжатия : С потерями
    Размер потока : 64, 0 Мбайт (11%)
    Выравнивание : Разделение по промежуткам
    Продолжительность промежутка : 40 мс. (1, 00 видеокадр)
    Время предзагрузки промежутка : 500 мс.


    Скриншоты для ознакомления




    Онлайн видео Метод (2015) HDTVRip (сезон любимого сериала 1, серии 1



    Метод (2015) HDTVRip (сезон 1, серии 1-2 из 16) (обновляемая)
    загрузка...
    Рейтинг →
     (голосов: 1, оценка 5/5, голосовать можно 1 раз )

    Другие торренты по теме:

  • Метод (2015) HDTVRip [H.264 / 720p-LQ] (серии 1-2 из 16) (обновляемая) скачать через торрент бесплатно
  • Метод (2015) HDTVRip [H.264] (сезон 1, серии 1-2 из 16) (обновляемая) скачать через торрент бесплатно
  • Метод Фрейда (2015) HDTVRip [H.264 / 720p-LQ] (сезон 2, серии 1-4 из 12) (обновляемая)
  • Метод Фрейда (2015) HDTVRip (сезон 2, серии 1-4 из 12) (обновляемая)
  • Метод (2015) HDTVRip (сезон 1, серии 1-16 из 16) [AVI|320x178]


    • Комментарии (0):

      Информация

      Информация

        Посетители, находящиеся в группе Гости, не могут оставлять комментарии в данной новости.

        ↓ Меню




        ↓ Опрос

        Вы добавили сайт в закладки?
        Да
        Нет


        Top 10 за месяц (Фильмы)

        Кинг Конг / King Kong (2005) BDRip [H.265 / 1080p] [Extended Cut]

        (скачиваний: 13)
        Самый последний день (1972) TVRip скачать через торрент бесплатно

        (скачиваний: 12)
        Собачья жизнь / A Dogs Purpose (2017) BDRip [H.264 / 1080p]

        (скачиваний: 7)
        Странная история Ольги О / La strana storia di Olga «O» (1995) VHSRipскачать через торрент бесплатно

        (скачиваний: 7)
        Тарзан и его подруга / Tarzan and His Mate (1934) DVDRip [H.264 / hand made colored] скачать через торрент бесплатно

        (скачиваний: 6)
        Мафиоза / Mafiosa, le clan (2006-2012) DVDRip (Сезон 1-4, серии 1-32 из 32) [UKR]

        (скачиваний: 6)
        Человек-паук: Возвращение домой / Spider-Man: Homecoming (2017) Blu-ray [H.264 / 1080p]

        (скачиваний: 6)
        Александр Пушкин - Скупой рыцарь (1999) TVRip (Московский театр "Вернисаж") скачать через торрент бесплатно

        (скачиваний: 5)
        Колокола времени / The Passing Bells (2014) HDTVRip [H.264 / 720p-LQ] (сезон 1, серии 1-5 из 5) Project Web Money

        (скачиваний: 4)
        К северу от Аляски / North to Alaska (1960) BDRip [H.264] скачать через торрент бесплатно

        (скачиваний: 4)