.
Авторизация | Регистрация
Хочешь лучшие торренты? Добавь свой email!
Добавить

Торрент скачать бесплатно

» » Пожарные Чикаго / Чикаго в Огне / Chicago Fire (2015) HDTVRip [H.264 / 720p-LQ] (сезон 4, серии 1-1 из 23) Шадинский (Обновляемая) скачать через торрент бесплатно




    Пожарные Чикаго / Чикаго в Огне / Chicago Fire (2015) HDTVRip [H.264 / 720p-LQ] (сезон 4, серии 1-1 из 23) Шадинский (Обновляемая) скачать через торрент бесплатно

    Опубликовал: Админ | Дата: 18-10-2015, 04:01 | Просмотров: 91

    Производство: США
    Жанр: Боевик, Драма
    Режиссер: Джо Чаппелль

    Актеры
    Джесси Спенсер, Тэйлор Кинни, Эамон Уолкер, Дэвид Эйгенберг, Лорен Герман, Терри Ривз, Моника Реймунд и др.

    Описание

    Захватывающий и волнующий сериал Пожарные Чикаго рассказывает о сложной, опасной и наполненной драматизмом работе пожарных и спасателей.
    Сюжет сериала наполнен адреналином, риском и опасными моментами, с которыми главные герои должны справиться. Команда пожарных Чикаго – это смелые, умные, принимающие моментальные решения люди. Вся их работа направлена на спасение людей и темно как ночью их имущества от огня, поэтому с каждой серией они действуют всё более решительно и дружно. Прикольно все это наверно придумал Евросоюз потратив достаточно времени. Как и любая очень опасная работа не обходится без переживаний в личной жизни и потерь в личном составе, которые наполняют всех и ложатся грузом вины на плечи коллег.
    Но как только случается беда, и пожарные выезжают на вызов, все ссоры, обиды и разногласия остаются позади, теперь все одна команда и готовы придти друг другу на помощь в самый ответственный момент.
    Первый сезон любимого сериала вышел в 2012 году. О таком странном сюжете не догадывалась даже Бритни Спирс. На данный момент выходит четвертый сезон любимого сериала сериала.

    Продолжительность: ~00: 43: 00 серия
    Качество видео: HDTVRip
    Перевод: Одноголосый закадровый, профессиональный
    Озвучка/Автор перевода: Шадинский
    Качество: HDTVRip
    Формат : AVI
    Видео: AVC/H.264, 1280x720 (16: 9), 23.976 fps, ~3073 kbps avg, 0.136 bit/pixel
    Аудио: 48 kHz, MP3, stereo 192 kbps
    Код:

    General
    Complete name : D:Video5Chicago Fire season 4 ShadinskyПожарные Чикаго 4х01 Шадинский.avi
    Format : AVI
    Format/Info : Audio Video Interleave
    File size : 921 MiB
    Duration : 41mn 54s
    Overall bit rate : 3 073 Kbps
    Writing application : VirtualDubModRus 1.5.10.2 (build 2542/release)
    Writing library : VirtualDubMod build 2542/release
    Video
    ID : 0
    Format : AVC
    Format/Info : Advanced Video Codec
    Format profile :High@L3.1
    Format settings, CABAC : Yes
    Format settings, ReFrames : 3 frames
    Codec ID : H264
    Duration : 41mn 54s
    Bit rate : 3 000 Kbps
    Width : 1 280 pixels
    Height : 720 pixels
    Display aspect ratio : 16:9
    Frame rate : 23.976 fps
    Original frame rate : 25.000 fps
    Color space : YUV
    Chroma subsampling : 4:2:0
    Bit depth : 8 bits
    Scan type : Progressive
    Bits/(Pixel*Frame) : 0.136
    Stream size : 861 MiB (93%)
    Writing library : x264 core 130 r2274bm c832fe9
    Encoding settings : cabac=1/ref=3/deblock=1:0:0/analyse=0x3:0x113/me=hex/subme=7/psy=1/psy_rd=1.00:0.00/mixed_ref=1/me_range=16/chroma_me=1/trellis=1/8x8dct=1/cqm=0/deadzone=21, 11/fast_pskip=1/chroma_qp_offset=-2/threads=8/lookahead_threads=8/sliced_threads=1/slices=8/nr=0/decimate=1/interlaced=0/bluray_compat=0/constrained_intra=0/bframes=0/weightp=2/keyint=250/keyint_min=25/scenecut=40/intra_refresh=0/rc=abr/mbtree=0/bitrate=3000/ratetol=1.0/qcomp=0.60/qpmin=0/qpmax=69/qpstep=4/ip_ratio=1.40/aq=1:1.00
    Audio
    ID : 1
    Format : MPEG Audio
    Format version : Version 1
    Format profile : Layer 3
    Mode : Joint stereo
    Codec ID : 55
    Codec ID/Hint : MP3
    Duration : 41mn 54s
    Bit rate mode : Constant
    Bit rate : 192 Kbps
    Channel(s) : 2 channels
    Sampling rate : 48.0 KHz
    Compression mode : Lossy
    Stream size : 57.6 MiB (6%)
    Alignment : Aligned on interleaves
    Interleave, duration : 42 ms (1.00 video frame)
    Interleave, preload duration : 504 ms


    Скриншоты для ознакомления




    Онлайн видео Пожарные Чикаго



    Пожарные Чикаго/Чикаго в Огне/Chicago Fire (2015) HDTVRip [H.264/720p-LQ] (сезон 4, серии 1-1 из 23) Шадинский (Обновляемая)
    загрузка...
    Рейтинг →
     (голосов: 1, оценка 3/5, голосовать можно 1 раз )

    Другие торренты по теме:

  • Пожарные Чикаго / Чикаго в Огне / Chicago Fire (2014) WEB-DLRip (сезон 3, серии 1 из 22) Шадинский (обновляемая) скачать через торрент бесплатно
  • Пожарные Чикаго / Чикаго в Огне / Chicago Fire (2016) WEB-DLRip (сезон 5, серия 1 из 22) Шадинский (обновляемая)
  • Пожарные Чикаго / Чикаго в Огне / Chicago Fire (2016) WEB-DLRip (сезон 5, серии 1-16 из 22) Шадинский (обновляемая)
  • Пожарные Чикаго / Chicago Fire (2012) BDRip (Сезон 1, серии 1-24 из 24) [SDI Media] скачать через торрент бесплатно


    • Комментарии (0):

      Информация

      Информация

        Посетители, находящиеся в группе Гости, не могут оставлять комментарии в данной новости.

        ↓ Меню




        ↓ Опрос

        Вы добавили сайт в закладки?
        Да
        Нет


        Top 10 за месяц (Фильмы)