.
Авторизация | Регистрация
Хочешь лучшие торренты? Добавь свой email!
Добавить

Торрент скачать бесплатно

» » Карточный Домик / House of Cards (2013-2015) HDRip (сезон 1-3, серии 1-39 из 39) Первый канал скачать через торрент бесплатно




    Карточный Домик / House of Cards (2013-2015) HDRip (сезон 1-3, серии 1-39 из 39) Первый канал скачать через торрент бесплатно

    Опубликовал: Админ | Дата: 18-10-2015, 04:01 | Просмотров: 848

    Производство: США
    Жанр: Политическая драма
    Режиссер: Джеймс Фоули, Дэвид Финчер, Карл Франклин

    Актеры
    Кевин Спейси, Робин Райт, Кейт Мара, Кори Столл, Майкл Келли, Сакина Джэффри, Ларри Пайн, Джейн Эткинсон, Кевин Килнер, Жаклин Джонс, Рюэл Пендлтон, Гилберт Сото, Кристен Коннолли, Сандрин Холт, Махершалалхашбаз Али, Майкл Гилл, Рэйчел Броснахэн, Бен Дэниелс и др.

    Описание

    Безжалостный конгрессмен, Фрэнсис Андервуд, и его амбициозная жена Клэр, не остановятся ни перед чем, чтобы завоевать все. Эта жестокая политическая драма пропитанная жадностью, сексом, любовью и коррупцией.

    Продолжительность: ~00: 50: 00 серия
    Качество видео: HDRip
    Перевод: Многоголосый закадровый, профессиональный -Первый канал
    Вид субтитров: отдельным файлом
    Язык субтитров: русский, английский
    Видео: XviD, ~1400 kbps, 704x352 (2.000), 23.976 fps
    Аудио Rus: AC3, 48.0 KHz, 2 ch, 192 kbps -Русский
    Аудио Eng: AC3, 48.0 KHz, 2 ch, 192 kbps -Оригинал
    Complete name : C: UserstutDesktopзакаченоеHouse of CardsSeason 01House.of.Cards.S01E01.XviD.1TV.qqss44.avi
    Format : AVI
    Format/Info : Audio Video Interleave
    File size : 740 MiB
    Duration : 55mn 57s
    Overall bit rate : 1 849 Kbps
    Writing application : VirtualDubMod 1.5.10.3 |www.virtualdub-fr.org|| (build 2550/release)
    Writing library : VirtualDubMod build 2550/release
    Video
    ID : 0
    Format : MPEG-4 Visual
    Format profile : Advanced Simple@L5
    Format settings, BVOP : 2
    Format settings, QPel : No
    Format settings, GMC : No warppoints
    Format settings, Matrix : Default (MPEG)
    Codec ID : XVID
    Codec ID/Hint : XviD
    Duration : 55mn 57s
    Bit rate : 1 450 Kbps
    Width : 704 pixels
    Height : 352 pixels
    Display aspect ratio : 2.000
    Frame rate : 23.976 fps
    Color space : YUV
    Chroma subsampling : 4: 2: 0
    Bit depth : 8 bits
    Scan type : Progressive
    Compression mode : Lossy
    Bits/(Pixel*Frame) : 0.244
    Stream size : 580 MiB (78%)
    Writing library : XviD 73
    Audio #1
    ID : 1
    Format : AC-3
    Format/Info : Audio Coding 3
    Mode extension : CM (complete main)
    Format settings, Endianness : Big
    Codec ID : 2000
    Duration : 55mn 57s
    Bit rate mode : Constant
    Bit rate : 192 Kbps
    Channel(s) : 2 channels
    Channel positions : Front: L R
    Sampling rate : 48.0 KHz
    Compression mode : Lossy
    Stream size : 76.8 MiB (10%)
    Alignment : Split accross interleaves
    Interleave, duration : 42 ms (1.00 video frame)
    Interleave, preload duratio : 500 ms
    Audio #2
    ID : 2
    Format : AC-3
    Format/Info : Audio Coding 3
    Mode extension : CM (complete main)
    Format settings, Endianness : Big
    Codec ID : 2000
    Duration : 55mn 57s
    Bit rate mode : Constant
    Bit rate : 192 Kbps
    Channel(s) : 2 channels
    Channel positions : Front: L R
    Sampling rate : 48.0 KHz
    Compression mode : Lossy
    Stream size : 76.8 MiB (10%)
    Alignment : Split accross interleaves
    Interleave, duration : 42 ms (1.00 video frame)
    Interleave, preload duratio : 500 ms
    General
    Complete name : C: UserstutDesktopзакаченоеHouse of CardsSeason 02House.of.Cards.S02E01.XviD.1TV.qqss44.avi
    Format : AVI
    Format/Info : Audio Video Interleave
    File size : 653 MiB
    Duration : 50mn 20s
    Overall bit rate : 1 812 Kbps
    Writing application : VirtualDubMod 1.5.10.3 |www.virtualdub-fr.org|| (build 2550/release)
    Writing library : VirtualDubMod build 2550/release
    Video
    ID : 0
    Format : MPEG-4 Visual
    Format profile : Advanced Simple@L5
    Format settings, BVOP : 2
    Format settings, QPel : No
    Format settings, GMC : No warppoints
    Format settings, Matrix : Default (MPEG)
    Codec ID : XVID
    Codec ID/Hint : XviD
    Duration : 50mn 20s
    Bit rate : 1 414 Kbps
    Width : 704 pixels
    Height : 352 pixels
    Display aspect ratio : 2.000
    Frame rate : 23.976 fps
    Color space : YUV
    Chroma subsampling : 4: 2: 0
    Bit depth : 8 bits
    Scan type : Progressive
    Compression mode : Lossy
    Bits/(Pixel*Frame) : 0.238
    Stream size : 509 MiB (78%)
    Writing library : XviD 73
    Audio #1
    ID : 1
    Format : AC-3
    Format/Info : Audio Coding 3
    Mode extension : CM (complete main)
    Format settings, Endianness : Big
    Codec ID : 2000
    Duration : 50mn 20s
    Bit rate mode : Constant
    Bit rate : 192 Kbps
    Channel(s) : 2 channels
    Channel positions : Front: L R
    Sampling rate : 48.0 KHz
    Compression mode : Lossy
    Stream size : 69.1 MiB (11%)
    Alignment : Split accross interleaves
    Interleave, duration : 42 ms (1.00 video frame)
    Interleave, preload duratio : 500 ms
    Audio #2
    ID : 2
    Format : AC-3
    Format/Info : Audio Coding 3
    Mode extension : CM (complete main)
    Format settings, Endianness : Big
    Codec ID : 2000
    Duration : 50mn 20s
    Bit rate mode : Constant
    Bit rate : 192 Kbps
    Channel(s) : 2 channels
    Channel positions : Front: L R
    Sampling rate : 48.0 KHz
    Compression mode : Lossy
    Stream size : 69.1 MiB (11%)
    Alignment : Split accross interleaves
    Interleave, duration : 42 ms (1.00 video frame)
    Interleave, preload duratio : 500 ms
    General
    Complete name : C: UserstutDesktopзакаченоеHouse of Cards hdripSeason 03House.of.Cards.S03E01.XviD.1TV.qqss44.avi
    Format : AVI
    Format/Info : Audio Video Interleave
    File size : 756 MiB
    Duration : 59mn 21s
    Overall bit rate : 1 781 Kbps
    Writing application : VirtualDubMod 1.5.10.3 |www.virtualdub-fr.org|| (build 2550/release)
    Writing library : VirtualDubMod build 2550/release
    Video
    ID : 0
    Format : MPEG-4 Visual
    Format profile : Advanced Simple@L5
    Format settings, BVOP : 2
    Format settings, QPel : No
    Format settings, GMC : No warppoints
    Format settings, Matrix : Default (MPEG)
    Codec ID : XVID
    Codec ID/Hint : XviD
    Duration : 59mn 21s
    Bit rate : 1 383 Kbps
    Width : 704 pixels
    Height : 352 pixels
    Display aspect ratio : 2.000
    Frame rate : 23.976 fps
    Color space : YUV
    Chroma subsampling : 4: 2: 0
    Bit depth : 8 bits
    Scan type : Progressive
    Compression mode : Lossy
    Bits/(Pixel*Frame) : 0.233
    Stream size : 587 MiB (78%)
    Writing library : XviD 73
    Audio #1
    ID : 1
    Format : AC-3
    Format/Info : Audio Coding 3
    Mode extension : CM (complete main)
    Format settings, Endianness : Big
    Codec ID : 2000
    Duration : 59mn 21s
    Bit rate mode : Constant
    Bit rate : 192 Kbps
    Channel(s) : 2 channels
    Channel positions : Front: L R
    Sampling rate : 48.0 KHz
    Compression mode : Lossy
    Stream size : 81.5 MiB (11%)
    Alignment : Split accross interleaves
    Interleave, duration : 42 ms (1.00 video frame)
    Interleave, preload duratio : 500 ms
    Audio #2
    ID : 2
    Format : AC-3
    Format/Info : Audio Coding 3
    Mode extension : CM (complete main)
    Format settings, Endianness : Big
    Codec ID : 2000
    Duration : 59mn 21s
    Bit rate mode : Constant
    Bit rate : 192 Kbps
    Channel(s) : 2 channels
    Channel positions : Front: L R
    Sampling rate : 48.0 KHz
    Compression mode : Lossy
    Stream size : 81.5 MiB (11%)
    Alignment : Split accross interleaves
    Interleave, duration : 42 ms (1.00 video frame)
    Interleave, preload duratio : 500 ms


    Скриншоты для ознакомления




    Онлайн видео Карточный Домик



    Карточный Домик/House of Cards (2013-2015) HDRip (сезон 1-3, серии 1-39 из 39) Первый канал
    загрузка...
    Рейтинг →
     (голосов: 1, оценка 4/5, голосовать можно 1 раз )

    Другие торренты по теме:

  • Карточный домик / House of Cards (2013) BDRip [H.264 / 720p-LQ] (Сезон 1, серии 1-13 из 13) (Первый)
  • Карточный домик / House of Cards (2015) WEBRip (сезон 3, серии 1-7 из 13) Первый канал (обновляемая) скачать через торрент бесплатно
  • В теме. Карточный домик (2015) SATRip скачать через торрент бесплатно
  • Карточный домик / House of Cards (2016) WEBRip (сезон 4, серии 1 из 13) Первый канал (обновляемая)
  • Карточный домик / House of Cards (2016) WEBRip [H.264 / 720p-LQ] (сезон 4, серии 1 из 13) Первый канал (обновляемая)
  • Карточный домик / House of Cards (2016) HDTVRip [H.264 / 1080p-LQ] (сезон 4, серии 1-13 из 13) Первый канал
  • Карточный Домик / House of Cards (2013-2016) WEB-DL 720p [H.264] (сезон 1-4, серии 1-52 из 52) (Первый Канал) [MP4] [Rus / Eng Sub]
  • Майкл Доббс | Карточный домик (2016) [FB2]


    • Комментарии (0):

      Информация

      Информация

        Посетители, находящиеся в группе Гости, не могут оставлять комментарии в данной новости.

        ↓ Меню




        ↓ Опрос

        Вы добавили сайт в закладки?
        Да
        Нет


        Top 10 за месяц (Фильмы)