.
Авторизация | Регистрация
Хочешь лучшие торренты? Добавь свой email!
Добавить

Торрент скачать бесплатно

» » Флэш / The Flash (1990) DVDRip [H.264] (сезон 1, серии 1-22 из 22) скачать через торрент бесплатно




    Флэш / The Flash (1990) DVDRip [H.264] (сезон 1, серии 1-22 из 22) скачать через торрент бесплатно

    Опубликовал: Админ | Дата: 18-10-2015, 04:00 | Просмотров: 48

    Производство: США, Pet Fly Productions, Warner Bros. Television
    Жанр: Фантастика, Криминал, Приключения
    Режиссер: Роберт Исков, Марио Аццопарди, Гас Триконис, Аарон Липстадт, Джонатан Сэнгер, Дэнни Билсон, Брюс Билсон, Кристофер Лейтч, Уильям А. Фрейкер, Гилберт М. Шилтон, Джеймс А. Контнер

    Актеры
    Джон Уэсли Шипп, Аманда Пэйс, Алекс Десерт, Вито Д’Амброзио, Бифф Мэнард, Майк Дженовезе, Ричард Белзер и др.

    Описание

    В случайной аварии полицейский криминалист Барри Аллен получает дозу химикатов и электрический разряд. Барри обнаруживает, что эта авария сделала его самым быстрым человеком на Земле, который даже может обогнать скорость звука. Он решает очистить улицы города от бандитов. Теперь его имя Флэш.

    Возрастное ограничение: PG (Просмотр с родителями)
    Продолжительность: ~ 0: 47: 00 серия, (1: 33: 48 - 1 серия)
    Качество видео: DVDRip
    Перевод: Профессиональный (полное дублирование); одноголосый закадровый, любительский
    Вид субтитров: Вшитые отключаемые
    Язык субтитров: Русский, Английский
    Видео: AVC/H.264, 640x480, ~1 787 Kbps
    Аудио #1 Rus: AC3, 2ch, 192 kbps - DUB (1 серия), VO (napaBo3uk) (2-11 серии), VO (PlatOn) (12-22 серии)
    Аудио #2 Rus: AC3, 2ch, 192 kbps - AVO (В. Горчаков) (1 серия), AVO (А. Алексеев) (9, 16 серии), AVO (А. Дольский) (12, 22 серии)
    Аудио #3 Eng: AC3, 2ch, 192 kbps
    Семпл: Скачать
    Код:

    General
    Unique ID : 184602613502406603337812763595730630604 (0x8AE12B8CB2E283018A00EAFD6568B7CC)
    Complete name : (1990) The Flashs01e01 Pilot.mkv
    Format : Matroska
    Format version : Version 4/Version 2
    File size : 1.55 GiB
    Duration : 1h 33mn
    Overall bit rate : 2 366 Kbps
    Encoded date : UTC 2015-10-16 21:00:29
    Writing application : mkvmerge v7.1.0 (\'Good Love\') 64bit built on Jul 27 2014 13:06:55
    Writing library : libebml v1.3.0 + libmatroska v1.4.1
    Attachements : Cover.jpg
    DURATION : 01:33:46.040000000
    NUMBER_OF_FRAMES : 1011
    NUMBER_OF_BYTES : 40710
    _STATISTICS_WRITING_APP : mkvmerge v7.1.0 (\'Good Love\') 64bit built on Jul 27 2014 13:06:55
    _STATISTICS_WRITING_DATE_UT : 2015-10-16 21:00:29
    _STATISTICS_TAGS : BPS DURATION NUMBER_OF_FRAMES NUMBER_OF_BYTES
    Video
    ID : 1
    Format : AVC
    Format/Info : Advanced Video Codec
    Format profile : High@L3
    Format settings, CABAC : Yes
    Format settings, ReFrames : 2 frames
    Codec ID : V_MPEG4/ISO/AVC
    Bit rate : 1 787 Kbps
    Width : 640 pixels
    Height : 480 pixels
    Display aspect ratio : 4:3
    Frame rate mode : Variable
    Color space : YUV
    Chroma subsampling : 4:2:0
    Bit depth : 8 bits
    Scan type : Progressive
    Writing library : x264 core 129
    Encoding settings : cabac=1/ref=2/deblock=1:0:0/analyse=0x3:0x113/me=hex/subme=6/psy=1/psy_rd=1.00:0.00/mixed_ref=1/me_range=16/chroma_me=1/trellis=0/8x8dct=1/cqm=0/deadzone=21, 11/fast_pskip=1/chroma_qp_offset=-2/threads=4/lookahead_threads=1/sliced_threads=0/nr=0/decimate=1/interlaced=0/bluray_compat=0/constrained_intra=0/bframes=0/weightp=2/keyint=250/keyint_min=25/scenecut=40/intra_refresh=0/rc_lookahead=40/rc=2pass/mbtree=1/bitrate=1787/ratetol=1.0/qcomp=0.60/qpmin=10/qpmax=51/qpstep=4/cplxblur=20.0/qblur=0.5/ip_ratio=1.41/aq=1:1.00
    Default : Yes
    Forced : No
    DURATION : 01:33:48.022000000
    NUMBER_OF_FRAMES : 168670
    NUMBER_OF_BYTES : 1257108661
    _STATISTICS_WRITING_APP : mkvmerge v7.1.0 (\'Good Love\') 64bit built on Jul 27 2014 13:06:55
    _STATISTICS_WRITING_DATE_UT : 2015-10-16 21:00:29
    _STATISTICS_TAGS : BPS DURATION NUMBER_OF_FRAMES NUMBER_OF_BYTES
    Audio #1
    ID : 2
    Format : AC-3
    Format/Info : Audio Coding 3
    Mode extension : CM (complete main)
    Format settings, Endianness : Big
    Codec ID : A_AC3
    Duration : 1h 33mn
    Bit rate mode : Constant
    Bit rate : 192 Kbps
    Channel(s) : 2 channels
    Channel positions : Front: L R
    Sampling rate : 48.0 KHz
    Compression mode : Lossy
    Stream size : 129 MiB (8%)
    Title : DUB (ОРТ)
    Language : Russian
    Default : Yes
    Forced : No
    Audio #2
    ID : 3
    Format : AC-3
    Format/Info : Audio Coding 3
    Mode extension : CM (complete main)
    Format settings, Endianness : Big
    Codec ID : A_AC3
    Duration : 1h 33mn
    Bit rate mode : Constant
    Bit rate : 192 Kbps
    Channel(s) : 2 channels
    Channel positions : Front: L R
    Sampling rate : 48.0 KHz
    Compression mode : Lossy
    Stream size : 129 MiB (8%)
    Title : AVO (В. Горчаков)
    Language : Russian
    Default : No
    Forced : No
    Audio #3
    ID : 4
    Format : AC-3
    Format/Info : Audio Coding 3
    Mode extension : CM (complete main)
    Format settings, Endianness : Big
    Codec ID : A_AC3
    Duration : 1h 33mn
    Bit rate mode : Constant
    Bit rate : 192 Kbps
    Channel(s) : 2 channels
    Channel positions : Front: L R
    Sampling rate : 48.0 KHz
    Compression mode : Lossy
    Delay relative to video : 23ms
    Stream size : 129 MiB (8%)
    Title : Original
    Language : English
    Default : No
    Forced : No
    Text #1
    ID : 5
    Format : UTF-8
    Codec ID : S_TEXT/UTF8
    Codec ID/Info : UTF-8 Plain Text
    Title : Full (dima360)
    Language : Russian
    Default : No
    Forced : No
    Text #2
    ID : 6
    Format : UTF-8
    Codec ID : S_TEXT/UTF8
    Codec ID/Info : UTF-8 Plain Text
    Title : Full
    Language : English
    Default : No
    Forced : No


    Скриншоты для ознакомления




    Онлайн видео Флэш



    Флэш/The Flash (1990) DVDRip [H.264] (сезон 1, серии 1-22 из 22)
    загрузка...
    Рейтинг →
     (голосов: 1, оценка 3/5, голосовать можно 1 раз )

    Другие торренты по теме:

  • Флэш / The Flash (2014) WEB-DL [H.264 / 720p-LQ] (Сезон 1, серия 1 из 13) BaibaKo (обновляемая)
  • Флэш / The Flash (2014) WEB-DLRip (сезон 1, серии 1 из 13) BaibaKo (обновляемая)
  • Флэш (The Flash) / (Сезон 1, серия 1 из 13) BaibaKo (2014) [MP4|720x400] <WEB-DLRip H.264>
  • Флэш (The Flash) / (Сезон 1, серия 1 из 13) LostFilm (2014) [MP4|1280x718] <WEB-DL H.264>
  • Флэш / The Flash (2014) WEB-DLRip (сезон 1, серии 1-2 из 13) LostFilm (обновляемая) скачать через торрент бесплатно
  • Флэш / The Flash (2014) WEB-DLRip (сезон 1, серии 1-2 из 13) NewStudio (обновляемая) скачать через торрент бесплатно
  • Флэш / The Flash (2014) WEB-DL [H.264 / 720p-LQ] (сезон 1, серии 1-8 из 23) LostFilm (обновляемая)
  • Флэш / The Flash (2014) WEB-DL [H.264 / 1080p-LQ] (сезон 1, серии 1-8 из 23) LostFilm (обновляемая)


    • Комментарии (0):

      Информация

      Информация

        Посетители, находящиеся в группе Гости, не могут оставлять комментарии в данной новости.

        ↓ Меню




        ↓ Опрос

        Вы добавили сайт в закладки?
        Да
        Нет


        Top 10 за месяц (Фильмы)