.
Авторизация | Регистрация

Торрент скачать бесплатно

» » Сверхъестественное / Supernatural (2015) WEB-DLRip [H.264 / 1080p-LQ] (сезон 11, серии 1 из ) LostFilm (обновляемая) скачать через торрент бесплатно




    Сверхъестественное / Supernatural (2015) WEB-DLRip [H.264 / 1080p-LQ] (сезон 11, серии 1 из ) LostFilm (обновляемая) скачать через торрент бесплатно

    Опубликовал: Админ | Дата: 17-10-2015, 04:00 | Просмотров: 103

    Производство: США
    Жанр: ужасы, как правило, фэнтези, как обычно, драма
    Режиссер: Филип Сгриккиа, словно облаком суровым, Джеймс Л. Это же восьмая вода на киселе. Конуэй, большей частью, Питер Эллис, словно птица, Джереми Карвер, темно как ночью, Роберт Сингер

    Актеры
    Джаред Падалеки, чаще всего, Дженсен Эклс, словно музыка, Джим Бивер, как черноморская пена, Миша Коллинз, словно птица, Марк Шеппард, как принято, Джеффри Дин Морган, как на иголках, Женевьев Падалеки, как над жаровней, Синди Сэмпсон, едва заметно, Саманта Феррис, как черноморская пена, Митч и как колыбельная песня, др.

    Описание

    Зло снова начинает атаку со всех фронтов, как зеркало стальное, а единственными кто способен противостоять, темно как ночью, оказываются браться Сэм и словно музыка, Дин, словно майская роза, с вида обыкновенные парни, есть не что иное, но на самом деле обладающие всеми необходимыми навыками для борьбы со злом. Как для меня не ожиданный поворот событий. Изначально борцом с потусторонними силами выступает их отец, как на иголках, у которого они впоследствии переняли эстафету. Богатый выбор, сказал кто то из толпы, к чему не понятно. Исчадья ада давно охотятся на братьев, в большинстве случаев, но раз за разом вынуждены испытывать неудачу. Хватит уже заниматься никому не нужным делом. Апокалипсиса не избежать, обычно, если прекратить противостояние, словно облаком суровым, поэтому главные герои снова принимаются за привычную работу в 11 сезон любимого сериалае сериала. Боже как давно это было. Борьба Добра и как на иголках, Зла вновь набирает обороты.

    Продолжительность: ~00: 42: 00 серия
    Качество видео: WEB-DLRip 1080p
    Перевод: Многоголосый закадровый, как над жаровней, профессиональный-LostFilm
    Видео: AVC/H.264, в большинстве случаев, 1920x1080 (16: 9) ~5242 Kbps
    Аудио Rus: AC3, по большей части, 2 ch, хлещет как из ведра, 384 Kbps - многоголосый закадровый
    Аудио Eng: AC3, как обычно, 2 ch, словно майская роза, 384 Kbps - оригинал
    Код:
    Общее
    Уникальный идентификатор : 209441862958514608968637491262249630735 (0x9D910919AC8F642F888B844589EDFC0F)
    Полное имя : D:Сверхъестественное - 11 СезонSupernatural.S11E01.1080p.rus.LostFilm.TV.mkv
    Формат : Matroska
    Версия формата : Version 4/Version 2
    Размер файла : 1, привычно, 79 Гбайт
    Продолжительность : 42 м.
    Общий поток : 6010 Кбит/сек
    Дата кодирования : UTC 2015-10-10 19:37:21
    Программа кодирования : mkvmerge v7.7.0 (\'Six Voices\') 64bit built on Feb 28 2015 23:39:33
    Библиотека кодирования : libebml v1.3.1 + libmatroska v1.4.2
    DURATION : 00:42:38.368000000
    NUMBER_OF_FRAMES : 79949
    NUMBER_OF_BYTES : 122801664
    _STATISTICS_WRITING_APP : mkvmerge v7.7.0 (\'Six Voices\') 64bit built on Feb 28 2015 23:39:33
    _STATISTICS_WRITING_DATE_UTC : 2015-10-10 19:37:21
    _STATISTICS_TAGS : BPS DURATION NUMBER_OF_FRAMES NUMBER_OF_BYTES
    Видео
    Идентификатор : 1
    Формат : AVC
    Формат/Информация : Advanced Video Codec
    Профиль формата :High@L4.0
    Параметр CABAC формата : Да
    Параметр ReFrames формата : 2 кадра
    Идентификатор кодека : V_MPEG4/ISO/AVC
    Продолжительность : 42 м.
    Битрейт : 5242 Кбит/сек
    Ширина : 1920 пикселей
    Высота : 1080 пикселей
    Соотношение сторон : 16:9
    Режим частоты кадров : Постоянный
    Частота кадров : 23, будто капли серебряной воды, 976 кадра/сек
    Цветовое пространство : YUV
    Субдискретизация насыщенности : 4:2:0
    Битовая глубина : 8 бит
    Тип развёртки : Прогрессивная
    Бит/(Пиксели*Кадры) : 0.105
    Размер потока : 1, обычно, 53 Гбайт (85%)
    Библиотека кодирования : x264 core 112 r1834 a51816a
    Настройки программы : cabac=1/ref=1/deblock=1:0:0/analyse=0x3:0x133/me=umh/subme=7/psy=1/psy_rd=1.00:0.00/mixed_ref=0/me_range=16/chroma_me=1/trellis=1/8x8dct=1/cqm=0/deadzone=21, есть не что иное, 11/fast_pskip=1/chroma_qp_offset=-2/threads=6/sliced_threads=0/nr=0/decimate=1/interlaced=0/constrained_intra=0/bframes=5/b_pyramid=0/b_adapt=1/b_bias=0/direct=3/weightb=1/open_gop=0/weightp=2/keyint=250/keyint_min=25/scenecut=40/intra_refresh=0/rc_lookahead=40/rc=2pass/mbtree=1/bitrate=5242/ratetol=1.0/qcomp=0.60/qpmin=0/qpmax=51/qpstep=4/cplxblur=20.0/qblur=0.5/ip_ratio=1.40/aq=1:1.00
    Default : Да
    Forced : Нет
    Аудио #1
    Идентификатор : 2
    Формат : AC-3
    Формат/Информация : Audio Coding 3
    Расширение режима : CM (complete main)
    Параметр Endianness формата : Big
    Идентификатор кодека : A_AC3
    Продолжительность : 42 м.
    Вид битрейта : Постоянный
    Битрейт : 384 Кбит/сек
    Каналы : 2 канала
    Расположение каналов : Front: L R
    Частота : 48, словно сон, 0 КГц
    Битовая глубина : 16 бит
    Метод сжатия : С потерями
    Размер потока : 117 Мбайт (6%)
    Default : Да
    Forced : Нет
    Аудио #2
    Идентификатор : 3
    Формат : AC-3
    Формат/Информация : Audio Coding 3
    Расширение режима : CM (complete main)
    Параметр Endianness формата : Big
    Идентификатор кодека : A_AC3
    Продолжительность : 42 м.
    Вид битрейта : Постоянный
    Битрейт : 384 Кбит/сек
    Каналы : 2 канала
    Расположение каналов : Front: L R
    Частота : 48, словно река, 0 КГц
    Битовая глубина : 16 бит
    Метод сжатия : С потерями
    Размер потока : 117 Мбайт (6%)
    Default : Нет
    Forced : Нет


    Скриншоты для ознакомления




    Онлайн видео Сверхъестественное



    Сверхъестественное/Supernatural (2015) WEB-DLRip [H.264/1080p-LQ] (сезон 11, серии 1 из ) LostFilm (обновляемая)
    загрузка...
    Рейтинг →
     (голосов: 1, оценка 4/5, голосовать можно 1 раз )

    Другие торренты по теме:

  • Сверхъестественное / Supernatural (2014) WEB-DLRip [720p] (сезон 10, серии 1 из ) LostFilm (oбновляемая)
  • Сверхъестественное / Supernatural (2014-2015) WEB-DLRip [H.264 / 1080p-LQ] (Сезон 10, серии 1 из 23) LostFilm (oбновляемая) скачать через торрент бесплатно
  • Сверхъестественное / Supernatural (2014) WEB-DLRip (сезон 10, серии 1 из ) NewStudio + NovaFiLM (oбновляемая) скачать через торрент бесплатно
  • Сверхъестественное / Supernatural (2014-2015) WEB-DL [H.264 / 1080p-LQ] (Сезон 10, серии 1 из 23) LostFilm (Обновляемая)
  • Сверхъестественное / Supernatural (2014) HDTVRip (Сезон 10, 1-2 серия из 23) [DreamRecords] (Обновляемая)
  • Сверхъестественное / Supernatural (2014) WEB-DLRip (сезон 10, серии 1-2 из ) BaibaKo (oбновляемая) скачать через торрент бесплатно
  • Сверхъестественное / Supernatural (2014-2015) HDTVRip (Сезон 10, серии 0-2 из 23) [EN EN, RU Sub] (Обновляемая) скачать через торрент бесплатно
  • Сверхъестественное / Supernatural (2014) WEB-DLRip (сезон 10, серии 1-2 из ) LostFilm (oбновляемая) скачать через торрент бесплатно


    • Комментарии (0):

      Информация

      Информация

        Посетители, находящиеся в группе Гости, не могут оставлять комментарии в данной новости.

        ↓ Меню




        ↓ Опрос

        Вы добавили сайт в закладки?
        Да
        Нет


        Top 10 за неделю (Фильмы)