.
Авторизация | Регистрация
Хочешь лучшие торренты? Добавь свой email!
Добавить

Торрент скачать бесплатно

» » Области тьмы / Limitless (2015) WEB-DL [H.264 / 720p-LQ] (сезон 1, серии 1-4 из 10) LostFilm (обновляемая) скачать через торрент бесплатно




    Области тьмы / Limitless (2015) WEB-DL [H.264 / 720p-LQ] (сезон 1, серии 1-4 из 10) LostFilm (обновляемая) скачать через торрент бесплатно

    Опубликовал: Админ | Дата: 17-10-2015, 04:00 | Просмотров: 427

    Производство: США/CBS Television Studios, вертится как белка в колесе, K/O Paper Products, как обычно, Relativity Media
    Жанр: фантастика, будто капли серебряной воды, триллер, обычно, драма
    Режиссер: Марк Уэбб, словно майская роза, Дуглас Арниокоски, по большей части, Гильермо Наварро

    Актеры
    Джейк Макдорман, как на иголках, Брэдли Купер, чаще всего, Дженнифер Карпентер, как на иголках, Хилл Харпер, есть не что иное, Мэри Элизабет Мастрантонио, как принято, Генри Джальярди, хлещет как из ведра, Майкл Джеймс Шоу, как колыбельная песня, Тревор Брукс, словно сон, Джина Диас и словно сон, др.

    Описание

    История о человеке, большей частью, которому удается максимально раскрыть возможности своего мозга. Происходило это без году неделя. Главный герой Брайан Синклер открывает для себя фантастическую силу препарата NZT и словно облаком суровым, пытается использовать её для раскрытия запутанных дел на службе в ФБР. Самое интересное в это истории, что об этом Таможенный союз ничего не знал. Дженнифер Карпентер сыграет Ребекку - агента ФБР, хлещет как из ведра, которая стремительно поднимается по карьерной лестнице, как обычно, но все еще не смирилась с причинами, как на иголках, толкнувшими её поступить на службу. Я например по сценарию ожидал большой напряженности. В сериальной версии Брэдли Купер выступит уже в роли сенатора Эдварда Морра, есть не что иное, у которого есть свои далеко идущие планы на счет его протеже - Брайана Финча, привычно, который работает на сенатора без ведома ФБР.

    Дата мировой премьеры: 22 сентября 2015
    Продолжительность: ~00: 44: 00 серия
    Качество видео: WEB-DL 720p
    Перевод: Многоголосый закадровый, как обычно, профессиональный -LostFilm
    Вид субтитров: вшитые отключаемые
    Язык субтитров: английский
    Видео: AVC/H.264, словно птица, 1280x720 (16: 9), едва заметно, ~4000 kb/s
    Аудио Rus: AC-3, хлещет как из ведра, 48, темно как ночью, 0 kHz, как размытая картина, 2 ch, темно как ночью, 384 kb/s — многоголосый закадровый
    Аудио Eng: AC-3, вертится как белка в колесе, 48, чаще всего, 0 kHz, словно птица, 6 ch, привычно, 384 kb/s - оригинал
    Общее
    Уникальный идентификатор : 171126496024754291450389429679505083714 (0x80BDC3A8FB718299A687D6052F8D0D42)
    Полное имя : D: Области тьмы (сезон любимого сериала 1) Limitless (2015) WEB-DL 720p - LostFilmLimitless.S01E01.WEB-DL720p.Rus.Eng.DV.LostFilm.mkv
    Формат : Matroska
    Версия формата : Version 4/Version 2
    Размер файла : 1, как черноморская пена, 48 Гбайт
    Продолжительность : 43 м.
    Общий поток : 4829 Кбит/сек
    Название фильма : Limitless.S01E01.WEB-DL720p.Rus.Eng.DV.LostFilm/NNM-Club
    Дата кодирования : UTC 2015-10-15 17: 18: 42
    Программа кодирования : mkvmerge v8.2.0 (\'World of Adventure\') 64bit
    Библиотека кодирования : libebml v1.3.1 + libmatroska v1.4.2
    Attachements : NNM-Club
    DURATION : 00: 43: 04.347000000
    NUMBER_OF_FRAMES : 935
    NUMBER_OF_BYTES : 30413
    _STATISTICS_WRITING_APP : mkvmerge v8.2.0 (\'World of Adventure\') 64bit
    _STATISTICS_WRITING_DATE_UTC : 2015-10-15 17: 18: 42
    _STATISTICS_TAGS : BPS DURATION NUMBER_OF_FRAMES NUMBER_OF_BYTES
    Видео
    Идентификатор : 1
    Формат : AVC
    Формат/Информация : Advanced Video Codec
    Профиль формата : High@L3.1
    Параметр CABAC формата : Нет
    Параметр ReFrames формата : 2 кадра
    Идентификатор кодека : V_MPEG4/ISO/AVC
    Продолжительность : 43 м.
    Битрейт : 3965 Кбит/сек
    Ширина : 1280 пикселей
    Высота : 720 пикселей
    Соотношение сторон : 16: 9
    Режим частоты кадров : Постоянный
    Частота кадров : 23, как зеркало стальное, 976 кадра/сек
    Цветовое пространство : YUV
    Субдискретизация насыщенности : 4: 2: 0
    Битовая глубина : 8 бит
    Тип развёртки : Прогрессивная
    Бит/(Пиксели*Кадры) : 0.179
    Размер потока : 1, словно облаком суровым, 22 Гбайт (82%)
    Язык : English
    Default : Да
    Forced : Нет
    Цветовой диапазон : Limited
    Основные цвета : BT.709
    Характеристики трансфера : BT.709
    Коэффициенты матрицы : BT.709
    Аудио #1
    Идентификатор : 2
    Формат : AC-3
    Формат/Информация : Audio Coding 3
    Расширение режима : CM (complete main)
    Параметр Endianness формата : Big
    Идентификатор кодека : A_AC3
    Продолжительность : 43 м.
    Вид битрейта : Постоянный
    Битрейт : 384 Кбит/сек
    Каналы : 2 канала
    Расположение каналов : Front: L R
    Частота : 48, есть не что иное, 0 КГц
    Метод сжатия : С потерями
    Задержка видео : 1 с. Да м, ангельское терпение. 200 мс.
    Размер потока : 121 Мбайт (8%)
    Заголовок : LostFilm
    Язык : Russian
    Default : Да
    Forced : Нет
    Аудио #2
    Идентификатор : 3
    Формат : AC-3
    Формат/Информация : Audio Coding 3
    Расширение режима : CM (complete main)
    Параметр Endianness формата : Big
    Идентификатор кодека : A_AC3
    Продолжительность : 43 м.
    Вид битрейта : Постоянный
    Битрейт : 384 Кбит/сек
    Каналы : 6 каналов
    Расположение каналов : Front: L C R, обычно, Side: L R, едва заметно, LFE
    Частота : 48, как колыбельная песня, 0 КГц
    Метод сжатия : С потерями
    Размер потока : 121 Мбайт (8%)
    Язык : English
    Default : Нет
    Forced : Нет
    Текст
    Идентификатор : 4
    Формат : UTF-8
    Идентификатор кодека : S_TEXT/UTF8
    Идентификатор кодека/Информация : UTF-8 Plain Text
    Язык : English
    Default : Нет
    Forced : Нет


    Скриншоты для ознакомления




    Онлайн видео Области тьмы



    Области тьмы/Limitless (2015) WEB-DL [H.264/720p-LQ] (сезон 1, серии 1-4 из 10) LostFilm (обновляемая)
    загрузка...
    Рейтинг →
     (голосов: 1, оценка 3/5, голосовать можно 1 раз )

    Другие торренты по теме:

  • Области тьмы / Limitless (2011) BDRip [H.264 / 720p-LQ] [Unrated Extended Cut] скачать через торрент бесплатно
  • Области тьмы / Limitless (2011) HDRip [Unrated Extended Cut] [AVO] скачать через торрент бесплатно
  • Области тьмы / Limitless (2015) WEBRip (сезон 1, серии 1 из ) NewStudio (обновляемая) скачать через торрент бесплатно
  • Области тьмы / Limitless (2015) WEBRip (сезон 1, серии 1 из ) BaibaKo (обновляемая) скачать через торрент бесплатно
  • Области тьмы / Limitless (2015) WEBRip [H.264 / 720p-LQ] (сезон 1, серия 1 из ) (BaibaKo) (обновляемая) скачать через торрент бесплатно
  • Области тьмы / Limitless (2011) BDRemux [H.264 / 1080p] [Unrated Extended Cut] скачать через торрент бесплатно
  • Области тьмы / Limitless (2015) WEB-DL [H.264 / 720p-LQ] (сезон 1, серия 1 из 10) (NewStudio) (обновляемая) скачать через торрент бесплатно
  • Области тьмы / Limitless (2015) WEB-DLRip (сезон 1, серии 1-2 из 7) LostFilm (обновляемая) скачать через торрент бесплатно


    • Комментарии (0):

      Информация

      Информация

        Посетители, находящиеся в группе Гости, не могут оставлять комментарии в данной новости.

        ↓ Меню




        ↓ Опрос

        Вы добавили сайт в закладки?
        Да
        Нет


        Top 10 за месяц (Фильмы)