.
Авторизация | Регистрация
Хочешь лучшие торренты? Добавь свой email!
Добавить

Торрент скачать бесплатно

» » Фарго / Fargo (2015) WEB-DL [H.264 / 720p-LQ] (сезон 2, серии 1 из 10) Первый канал (обновляемая) скачать через торрент бесплатно




    Фарго / Fargo (2015) WEB-DL [H.264 / 720p-LQ] (сезон 2, серии 1 из 10) Первый канал (обновляемая) скачать через торрент бесплатно

    Опубликовал: Админ | Дата: 17-10-2015, 04:00 | Просмотров: 136

    Производство: США/MGM Television, FX Productions
    Жанр: триллер, драма, криминал
    Режиссер: Адам Аркин, Кит Гордон

    Актеры
    Патрик Уилсон, Кирстен Данст, Джесси Племонс, Тед Дэнсон, Джин Смарт, Энгус Сэмпсон, Адам Аркин, Брэд Манн, Занн МаКларнон и др.

    Описание

    История второго сезон любимого сериалаа сосредоточится вокруг события, произошедшего зимой 1979 года в Су-Фолс, штат Южная Дакота, о котором часто упоминали на протяжении первого сезон любимого сериалаа, а главными героями станут молодые Лу Солверсон и его жена, мать Молли.

    Релиз от: CasStudio
    Продолжительность: ~00: 52: 00 серия
    Качество видео: WEB-DL 720p
    Перевод: Многоголосый закадровый, профессиональный -Первый канал
    Видео: AVC/H.264, 1280x718 (16: 9), ~4000 kb/s
    Аудио Rus: AC-3, 48, 0 kHz, 2 ch, 192 kb/s — многоголосый закадровый
    Аудио Eng: AC-3, 48, 0 kHz, 2 ch, 192 kb/s - оригинал
    Общее
    Уникальный идентификатор : 242030409586532198381790816443974556967 (0xB6155C7FF587E2AE9E626891DD381D27)
    Полное имя : D: Фарго (сезон любимого сериала 2) Fargo (2015) WEB-DL 720p - ПервыйFargo.S02E01.Waiting.for.Dutch.720p.WEB-DL.DD2.0.H.264-CasStudio.mkv
    Формат : Matroska
    Версия формата : Version 4/Version 2
    Размер файла : 1, 61 Гбайт
    Продолжительность : 50 м.
    Общий поток : 4605 Кбит/сек
    Название фильма : Fargo.S02E01.Waiting.for.Dutch.720p.WEB-DL.DD2.0.H.264-CasStudio
    Дата кодирования : UTC 2015-10-16 20: 56: 10
    Программа кодирования : mkvmerge v8.0.0 (\'Til The Day That I Die\') 64bit
    Библиотека кодирования : libebml v1.3.1 + libmatroska v1.4.2
    DURATION : 00: 50: 08.768000000
    NUMBER_OF_FRAMES : 94024
    NUMBER_OF_BYTES : 72210432
    _STATISTICS_WRITING_APP : mkvmerge v8.0.0 (\'Til The Day That I Die\') 64bit
    _STATISTICS_WRITING_DATE_UTC : 2015-10-16 20: 56: 10
    _STATISTICS_TAGS : BPS DURATION NUMBER_OF_FRAMES NUMBER_OF_BYTES
    Видео
    Идентификатор : 1
    Формат : AVC
    Формат/Информация : Advanced Video Codec
    Профиль формата : High@L3.1
    Параметр CABAC формата : Нет
    Параметр ReFrames формата : 2 кадра
    Идентификатор кодека : V_MPEG4/ISO/AVC
    Продолжительность : 50 м.
    Битрейт : 4129 Кбит/сек
    Ширина : 1280 пикселей
    Высота : 718 пикселей
    Соотношение сторон : 16: 9
    Режим частоты кадров : Постоянный
    Частота кадров : 25, 000 кадров/сек
    Цветовое пространство : YUV
    Субдискретизация насыщенности : 4: 2: 0
    Битовая глубина : 8 бит
    Тип развёртки : Прогрессивная
    Бит/(Пиксели*Кадры) : 0.180
    Размер потока : 1, 45 Гбайт (90%)
    Язык : English
    Default : Да
    Forced : Нет
    Цветовой диапазон : Limited
    Основные цвета : BT.709
    Характеристики трансфера : BT.709
    Коэффициенты матрицы : BT.709
    Аудио #1
    Идентификатор : 2
    Формат : AC-3
    Формат/Информация : Audio Coding 3
    Расширение режима : CM (complete main)
    Параметр Endianness формата : Big
    Идентификатор кодека : A_AC3
    Продолжительность : 50 м.
    Вид битрейта : Постоянный
    Битрейт : 192 Кбит/сек
    Каналы : 2 канала
    Расположение каналов : Front: L R
    Частота : 48, 0 КГц
    Метод сжатия : С потерями
    Размер потока : 68, 9 Мбайт (4%)
    Язык : Russian
    Default : Да
    Forced : Нет
    Аудио #2
    Идентификатор : 3
    Формат : AC-3
    Формат/Информация : Audio Coding 3
    Расширение режима : CM (complete main)
    Параметр Endianness формата : Big
    Идентификатор кодека : A_AC3
    Продолжительность : 50 м.
    Вид битрейта : Постоянный
    Битрейт : 192 Кбит/сек
    Каналы : 2 канала
    Расположение каналов : Front: L R
    Частота : 48, 0 КГц
    Метод сжатия : С потерями
    Размер потока : 68, 9 Мбайт (4%)
    Язык : English
    Default : Нет
    Forced : Нет


    Скриншоты для ознакомления




    Онлайн видео Фарго



    Фарго/Fargo (2015) WEB-DL [H.264/720p-LQ] (сезон 2, серии 1 из 10) Первый канал (обновляемая)
    загрузка...
    Рейтинг →
     (голосов: 1, оценка 5/5, голосовать можно 1 раз )

    Другие торренты по теме:

  • Фарго / Fargo (2015) WEB-DL [H.264 / 1080p-LQ] (сезон 2, серии 1 из 10) NewStudio (обновляемая) скачать через торрент бесплатно
  • Фарго / Fargo (2015) WEB-DLRip (сезон 2, серии 1 из 10) NewStudio (обновляемая) скачать через торрент бесплатно
  • Фарго / Fargo (2015) WEB-DLRip (сезон 2, серии 1 из 10) LostFilm (обновляемая) скачать через торрент бесплатно
  • Фарго / Fargo (2015) WEB-DL [H.264 / 720p-LQ] (сезон 2, серия 1 из 10) (NewStudio) (обновляемая) скачать через торрент бесплатно
  • Фарго / Fargo (2015) WEB-DL [H.264 / 720p-LQ] (сезон 2, серия 1 из 10) (LostFilm) (обновляемая) скачать через торрент бесплатно
  • Фарго / Fargo (2015) WEB-DLRip [H.264 / 720p-LQ] (cезон 2, серии 1- из 10) (LostFilm, Кубик в Кубе, Первый канал) (обновляемая) скачать через торрент бесплатно
  • Фарго / Fargo (2015) WEB-DLRip [H.264 / 1080p-LQ] (cезон 2, серии 1-3 из 10) (LostFilm, Кубик в Кубе, Первый канал) (обновляемая) скачать через торрент бесплатно
  • Фарго / Fargo (2015) WEB-DLRip (сезон 2, серии 1-3 из 10) (LostFilm, Кубик в Кубе, Первый канал) (обновляемая) скачать через торрент бесплатно


    • Комментарии (0):

      Информация

      Информация

        Посетители, находящиеся в группе Гости, не могут оставлять комментарии в данной новости.

        ↓ Меню




        ↓ Опрос

        Вы добавили сайт в закладки?
        Да
        Нет


        Top 10 за месяц (Фильмы)