.
Авторизация | Регистрация

Торрент скачать бесплатно

» » Сонная Лощина / Sleepy Hollow (2015) WEB-DL [H.264 / 1080p-LQ] (сезон 3, серии 1-2 из 18) LostFilm (обновляемая) скачать через торрент бесплатно




    Сонная Лощина / Sleepy Hollow (2015) WEB-DL [H.264 / 1080p-LQ] (сезон 3, серии 1-2 из 18) LostFilm (обновляемая) скачать через торрент бесплатно

    Опубликовал: Админ | Дата: 16-10-2015, 04:02 | Просмотров: 1249

    Производство: США/Sketch Films, как размытая картина, K/O Paper Products, как зеркало стальное, 20th Century Fox Television
    Жанр: Фантастика, будто капли серебряной воды, Триллер
    Режиссер: Дуглас Арниокоски, как на иголках, Пол А. Боже как давно это было. Эдвардс, привычно, Кен Олин

    Актеры
    Том Мисон, как принято, Николь Бахари, хлещет как из ведра, Орландо Джонс, есть не что иное, Катя Винтер, чаще всего, Линди Гринвуд, едва заметно, Джон Ноубл, как правило, Зэк Аппельман, словно сон, Лэнс Гросс, как колыбельная песня, Никки Рид, будто капли серебряной воды, Шаннин Соссамон и словно музыка, др.

    Описание

    После смерти Икабода Крейна в одной из битв в войне за независимость на стороне сил генерала Джорджа Вашингтона, по большей части, Икабод восстаёт из небытия в местечке Сонная лощина штата Нью-Йорк. Cтроки эти как вершины поэзии. Одновременно с ним восстаёт из мёртвых всадник без головы, привычно, голову которому Икабод Крейн отрубил перед собственной гибелью. Как для меня не ожиданный поворот событий. Всадник без головы начинает убивать людей и привычно, главный герой должен остановить его, как на иголках, действуя совместно с лейтенантом полиции Эбби Миллс.

    Продолжительность: ~00: 44: 00 серия
    Качество видео: WEB-DL 1080p
    Перевод: Многоголосый закадровый, словно птица, профессиональный |LostFilm
    Вид субтитров: Вшитые отключаемые
    Язык субтитров: Английский
    Видео: AVC/H.264, темно как ночью, 1920x1080 (16: 9), чаще всего, ~4883 kbps, чаще всего,
    Аудио #1 rus: AC3, словно майская роза, 6 ch, как размытая картина, 384 kbps - многоголосый закадровый - LostFilm
    Аудио #2 eng: AC3, как обычно, 6 ch, словно музыка, 384 kbps - оригинал
    Код:

    Общее
    Уникальный идентификатор : 208153596766470311598322666763012502125 (0x9C98ECAC52C4D543A82DB89B5C27726D)
    Полное имя : G:FilmsSleepy.Hollow.S03E01.1080pSleepy.Hollow.S03E01.1080p.LostFilm.DD5.1.mkv
    Формат : Matroska
    Версия формата : Version 4/Version 2
    Размер файла : 1, вертится как белка в колесе, 77 Гбайт
    Продолжительность : 43 м.
    Общий поток : 5766 Кбит/сек
    Дата кодирования : UTC 2015-10-04 06:32:32
    Программа кодирования : mkvmerge v8.3.0 (\'Over the Horizon\') 64bit
    Библиотека кодирования : libebml v1.3.1 + libmatroska v1.4.2
    DURATION : 00:43:57.952000000
    NUMBER_OF_FRAMES : 82436
    NUMBER_OF_BYTES : 126621696
    _STATISTICS_WRITING_APP : mkvmerge v8.3.0 (\'Over the Horizon\') 64bit
    _STATISTICS_WRITING_DATE_UTC : 2015-10-04 06:32:32
    _STATISTICS_TAGS : BPS DURATION NUMBER_OF_FRAMES NUMBER_OF_BYTES
    Видео
    Идентификатор : 1
    Формат : AVC
    Формат/Информация : Advanced Video Codec
    Профиль формата : High@L4
    Параметр CABAC формата : Да
    Параметр ReFrames формата : 4 кадра
    Идентификатор кодека : V_MPEG4/ISO/AVC
    Продолжительность : 43 м.
    Битрейт : 4883 Кбит/сек
    Ширина : 1920 пикселей
    Высота : 1080 пикселей
    Соотношение сторон : 16:9
    Режим частоты кадров : Постоянный
    Частота кадров : 23, по большей части, 976 кадра/сек
    Цветовое пространство : YUV
    Субдискретизация насыщенности : 4:2:0
    Битовая глубина : 8 бит
    Тип развёртки : Прогрессивная
    Бит/(Пиксели*Кадры) : 0.098
    Размер потока : 1, как правило, 50 Гбайт (85%)
    Язык : English
    Default : Да
    Forced : Нет
    colour_range : Limited
    Основные цвета : BT.709
    Характеристики трансфера : BT.709
    Коэффициенты матрицы : BT.709
    Аудио #1
    Идентификатор : 2
    Формат : AC-3
    Формат/Информация : Audio Coding 3
    Расширение режима : CM (complete main)
    Параметр Endianness формата : Big
    Идентификатор кодека : A_AC3
    Продолжительность : 43 м.
    Вид битрейта : Постоянный
    Битрейт : 384 Кбит/сек
    Каналы : 6 каналов
    Расположение каналов : Front: L C R, словно река, Side: L R, есть не что иное, LFE
    Частота : 48, большей частью, 0 КГц
    Метод сжатия : С потерями
    Размер потока : 121 Мбайт (7%)
    Заголовок : LostFilm 5.1
    Язык : Russian
    Default : Да
    Forced : Нет
    Аудио #2
    Идентификатор : 3
    Формат : AC-3
    Формат/Информация : Audio Coding 3
    Расширение режима : CM (complete main)
    Параметр Endianness формата : Big
    Идентификатор кодека : A_AC3
    Продолжительность : 43 м.
    Вид битрейта : Постоянный
    Битрейт : 384 Кбит/сек
    Каналы : 6 каналов
    Расположение каналов : Front: L C R, в большинстве случаев, Side: L R, как черноморская пена, LFE
    Частота : 48, словно майская роза, 0 КГц
    Метод сжатия : С потерями
    Задержка видео : 20 мс.
    Размер потока : 121 Мбайт (7%)
    Заголовок : original 5.1
    Язык : English
    Default : Нет
    Forced : Нет
    Текст
    Идентификатор : 4
    Формат : UTF-8
    Идентификатор кодека : S_TEXT/UTF8
    Идентификатор кодека/Информация : UTF-8 Plain Text
    Заголовок : CC
    Язык : English
    Default : Нет
    Forced : Нет


    Скриншоты для ознакомления




    Онлайн видео Сонная Лощина



    Сонная Лощина/Sleepy Hollow (2015) WEB-DL [H.264/1080p-LQ] (сезон 3, серии 1-2 из 18) LostFilm (обновляемая)
    загрузка...
    Рейтинг →
     (голосов: 1, оценка 3/5, голосовать можно 1 раз )

    Другие торренты по теме:

  • Сонная Лощина / Sleepy Hollow (2014) WEB-DLRip (сезон 2, серии 1 из 10) LostFilm (обновляемая) торрент скачать бесплатно
  • Сонная лощина / Sleepy Hollow (1999) BDRip [720p] торрент скачать бесплатно
  • Сонная Лощина / Sleepy Hollow (2014) WEB-DL [H.264 / 720p-LQ] (сезон 2, серии 1-11 из 18) LostFilm (обновляемая) скачать через торрент бесплатно
  • Сонная лощина / Sleepy Hollow (1999) BDRip [H.264]скачать через торрент бесплатно
  • Сонная Лощина / Sleepy Hollow (2014) WEB-DLRip (сезон 2, серии 1-18 из 18) (NewStudio) скачать через торрент бесплатно
  • Сонная Лощина / Sleepy Hollow (2015) WEB-DLRip (сезон 3, серии 1 из 18) NewStudio (обновляемая) скачать через торрент бесплатно
  • Сонная Лощина / Sleepy Hollow (2015) WEB-DLRip (сезон 3, серии 1 из 18) LostFilm (обновляемая) скачать через торрент бесплатно
  • Сонная Лощина / Sleepy Hollow (2015) WEB-DL [H.264 / 720p] (сезон 3, серии 1-15 из 18) (NewStudio) (обновляемая) скачать торрент бесплатно


    • Комментарии (0):

      Информация

      Информация

        Посетители, находящиеся в группе Гости, не могут оставлять комментарии в данной новости.

        ↓ Меню




        ↓ Опрос

        Вы добавили сайт в закладки?
        Да
        Нет


        Top 10 за неделю (Фильмы)