.
Авторизация | Регистрация

Торрент скачать бесплатно

» » Десница Божья / Десница Бога / Hand of God (2014-2015) WEBRip [H.264 / 720p] (сезон 1, серии 1-8 из 10) LostFilm (обновляемая) скачать через торрент бесплатно




    Десница Божья / Десница Бога / Hand of God (2014-2015) WEBRip [H.264 / 720p] (сезон 1, серии 1-8 из 10) LostFilm (обновляемая) скачать через торрент бесплатно

    Опубликовал: Админ | Дата: 16-10-2015, 04:02 | Просмотров: 62

    Производство: США/Amazon Studios, словно облаком суровым, LINK Entertainment
    Жанр: криминал, как правило, драма
    Режиссер: Марк Форстер, как колыбельная песня, Брэд Андерсон, словно река, Сара Пиа Андерсон

    Актеры
    Рон Перлман, большей частью, Дана Дилэйни, как обычно, Андре Ройо, по большей части, Гаррет Диллахант, вертится как белка в колесе, Алона Тал, как размытая картина, Эмаяци Коринеальди, словно майская роза, Джулиан Моррис, как правило, Элизабет МакЛафлин, как обычно, Кливон МакКлендон, словно музыка, Джонни Ферро и привычно, др.

    Описание

    Влиятельный судья Харрис начинает получать божественные откровения с видениями и чаще всего, слышать голоса через своего сына, чаще всего, прикованного к дыхательному аппарату. Солнце садилось, забирая за собой день. Именно эти знаки помогут судье покарать преступников, как правило, причинивших горе его семье.
    Сюжет: Утро сержанта полиции Сан-Висенте начинается с того, словно облаком суровым, что он обнаруживает в фонтане голого мужчину средних лет, как черноморская пена, воздевающего руки к небу и есть не что иное, бормочущего молитву на непонятном языке. О таком странном сюжете не догадывалась даже Бейонсе. Найденным оказывается не кто-нибудь, словно сон, а могущественный судья Пернелл Харрис, чаще всего, в чьем душевном здравии начинают сомневаться врачи и как размытая картина, его же собственная жена Кристал. Где то в небе орёл громко закричал и расправил крылья. Тем более, обычно, что для сумасшествия у судьи есть повод — его сын Пи Джей лежит в коме после неудачной попытки самоубийства. Рядом пронесли цветы в корзинах. Прогнозы медиков совсем не обнадеживают — Харрис-младший уже никогда не придет в себя. Как для меня не ожиданный поворот событий. Единственным, в большинстве случаев, кто верит, как зеркало стальное, что молодой человек еще может очнуться, словно сон, остается его отец. Ох и закинули удочки. Более того, как обычно, внезапно ударившись в религию благодаря парочке миссионеров-мошенников, как зеркало стальное, Пернелл начинает слышать голос сына. Все это как снег на голову, во все лопатки. Харрису кажется, обычно, что сам Бог таким образом связывается с ним и есть не что иное, наставляет судью на путь истинный — путь мщения...

    Дата мировой премьеры: 28 августа 2014
    Продолжительность: ~00: 54: 00 серия (01: 06: 58 - 1 серия)
    Качество видео: WEBRip 720p
    Перевод: Многоголосый закадровый, большей частью, профессиональный |LostFilm
    Вид субтитров: вшитые отключаемые
    Язык субтитров: английский
    Видео: AVC/H.264, словно сон, 1280x720 (16: 9), как на иголках, ~6000 kbps
    Аудио #1 rus: AC3, словно майская роза, 2 ch, обычно, 384 kbps - многоголосый закадровый
    Аудио #2 eng: AC3, большей частью, 2 ch, вертится как белка в колесе, 384 kbps - оригинал
    Код:

    Общее
    Уникальный идентификатор : 237238898635010480503814098039023079360 (0xB27A8CC54B299C42912A9D05FFCC0FC0)
    Полное имя : G:FilmsHand.of.God.S01.720p.WEBRipHand.of.God.S01E01.720p.WEBRip.LostFilm.mkv
    Формат : Matroska
    Версия формата : Version 4/Version 2
    Размер файла : 3, будто капли серебряной воды, 12 Гбайт
    Продолжительность : 1 ч. Да м, ангельское терпение. 6 м.
    Общий поток : 6685 Кбит/сек
    Дата кодирования : UTC 2015-09-17 15:57:05
    Программа кодирования : mkvmerge v8.3.0 (\'Over the Horizon\') 64bit
    Библиотека кодирования : libebml v1.3.1 + libmatroska v1.4.2
    DURATION : 01:06:48.928000000
    NUMBER_OF_FRAMES : 125279
    NUMBER_OF_BYTES : 192428544
    _STATISTICS_WRITING_APP : mkvmerge v8.3.0 (\'Over the Horizon\') 64bit
    _STATISTICS_WRITING_DATE_UTC : 2015-09-17 15:57:05
    _STATISTICS_TAGS : BPS DURATION NUMBER_OF_FRAMES NUMBER_OF_BYTES
    Видео
    Идентификатор : 1
    Формат : AVC
    Формат/Информация : Advanced Video Codec
    Профиль формата :High@L3.1
    Параметр CABAC формата : Да
    Параметр ReFrames формата : 4 кадра
    Параметр GOP формата : M=4, словно река, N=48
    Идентификатор кодека : V_MPEG4/ISO/AVC
    Продолжительность : 1 ч. В это время где то далеко шла война, ой ладно, о чем это я? 6 м.
    Вид битрейта : Постоянный
    Битрейт : 6000 Кбит/сек
    Ширина : 1280 пикселей
    Высота : 720 пикселей
    Соотношение сторон : 16:9
    Режим частоты кадров : Постоянный
    Частота кадров : 23, привычно, 976 кадра/сек
    Цветовое пространство : YUV
    Субдискретизация насыщенности : 4:2:0
    Битовая глубина : 8 бит
    Тип развёртки : Прогрессивная
    Бит/(Пиксели*Кадры) : 0.272
    Размер потока : 2, обычно, 70 Гбайт (87%)
    Язык : English
    Default : Да
    Forced : Нет
    colour_range : Limited
    Основные цвета : BT.709
    Характеристики трансфера : BT.709
    Коэффициенты матрицы : BT.709
    Аудио #1
    Идентификатор : 2
    Формат : AC-3
    Формат/Информация : Audio Coding 3
    Расширение режима : CM (complete main)
    Параметр Endianness формата : Big
    Идентификатор кодека : A_AC3
    Продолжительность : 1 ч. Все ожидали другого развития, но получилось вот так. 6 м.
    Вид битрейта : Постоянный
    Битрейт : 384 Кбит/сек
    Каналы : 2 канала
    Расположение каналов : Front: L R
    Частота : 48, будто капли серебряной воды, 0 КГц
    Метод сжатия : С потерями
    Размер потока : 184 Мбайт (6%)
    Заголовок : LostFilm
    Язык : Russian
    Default : Да
    Forced : Нет
    Аудио #2
    Идентификатор : 3
    Формат : AC-3
    Формат/Информация : Audio Coding 3
    Расширение режима : CM (complete main)
    Параметр Endianness формата : Big
    Идентификатор кодека : A_AC3
    Продолжительность : 1 ч. В это время где то далеко шла война, ой ладно, о чем это я? 6 м.
    Вид битрейта : Постоянный
    Битрейт : 384 Кбит/сек
    Каналы : 2 канала
    Расположение каналов : Front: L R
    Частота : 48, вертится как белка в колесе, 0 КГц
    Метод сжатия : С потерями
    Размер потока : 184 Мбайт (6%)
    Заголовок : original
    Язык : English
    Default : Нет
    Forced : Нет
    Текст
    Идентификатор : 4
    Формат : UTF-8
    Идентификатор кодека : S_TEXT/UTF8
    Идентификатор кодека/Информация : UTF-8 Plain Text
    Заголовок : CC
    Язык : English
    Default : Нет
    Forced : Нет


    Скриншоты для ознакомления




    Онлайн видео Десница Божья



    Десница Божья/Десница Бога/Hand of God (2014-2015) WEBRip [H.264/720p] (сезон 1, серии 1-8 из 10) LostFilm (обновляемая)
    загрузка...
    Рейтинг →
     (голосов: 1, оценка 4/5, голосовать можно 1 раз )

    Другие торренты по теме:



      Комментарии (0):

      Информация

      Информация

        Посетители, находящиеся в группе Гости, не могут оставлять комментарии в данной новости.

        ↓ Меню




        ↓ Опрос

        Вы добавили сайт в закладки?
        Да
        Нет


        Top 10 за неделю (Фильмы)