.
Авторизация | Регистрация
Хочешь лучшие торренты? Добавь свой email!
Добавить

Торрент скачать бесплатно

» » Фарго / Fargo (2015) WEB-DL [H.264 / 720p-LQ] (сезон 2, серия 1 из 10) (NewStudio) (обновляемая) скачать через торрент бесплатно




    Фарго / Fargo (2015) WEB-DL [H.264 / 720p-LQ] (сезон 2, серия 1 из 10) (NewStudio) (обновляемая) скачать через торрент бесплатно

    Опубликовал: Админ | Дата: 15-10-2015, 04:00 | Просмотров: 73

    Производство: США
    Жанр: триллер, драма, криминал
    Режиссер: Мэтт Шекман, Скотт Уинант, Адам Бернштейн

    Актеры
    Патрик Уилсон, Кирстен Данст, Джесси Племонс, Тед Дэнсон, Джин Смарт, Энгус Сэмпсон, Адам Аркин, Брэд Манн, Зан МакКларнон, Эмили Хейн, Кейр О\'Доннелл, Жюль Хобсон, Анна Каммер, Дэн Бирн, Тодд Манн, Райан О\'Нан, Джесси Коллин, Дэйв Бурчилл и др.

    Описание

    История второго сезон любимого сериалаа сосредоточится вокруг события, произошедшего зимой 1979 года в Су-Фолс, штат Южная Дакота, о котором часто упоминали на протяжении первого сезон любимого сериалаа, а главными героями станут молодые Лу Солверсон и его жена, мать Молли.

    Релиз от: NewStudio
    Продолжительность: ~ 00: 50: 00 серия
    Качество видео: WEB-DL 720p
    Перевод: Профессиональный многоголосый закадровый -NewStudio
    Автор перевода: Александра Цернант
    Формат: MKV
    Видео: AVC/H.264, 1280x718 (16: 9), 23.976 fps, ~3903 Kbps, ~0.177 bit/pixel
    Аудио Rus: AC3, 384 kbps, 6 ch, 48 kHz
    Аудио Eng: AC3, 384 kbps, 6 ch, 48 kHz
    Код:
    Общее
    Fargo - Фарго. Сезон 2. NewStudio. 720pFargo.s02e01.WEBDL.720p.NewStudio.TV.mkv
    Формат : Matroska
    Версия формата : Version 4/Version 2
    Размер файла : 1, 66 Гбайт
    Продолжительность : 49 м.
    Общий поток : 4766 Кбит/сек
    Дата кодирования : UTC 2015-10-13 18:56:37
    Программа кодирования : mkvmerge v8.2.0 (\'World of Adventure\') 32bit
    Библиотека кодирования : libebml v1.3.1 + libmatroska v1.4.2
    DURATION : 00:49:55.488000000
    NUMBER_OF_FRAMES : 93609
    NUMBER_OF_BYTES : 143783424
    _STATISTICS_WRITING_APP : mkvmerge v8.2.0 (\'World of Adventure\') 32bit
    _STATISTICS_WRITING_DATE_UTC : 2015-10-13 18:56:37
    _STATISTICS_TAGS : BPS DURATION NUMBER_OF_FRAMES NUMBER_OF_BYTES
    Видео
    Идентификатор : 1
    Формат : AVC
    Формат/Информация : Advanced Video Codec
    Профиль формата :High@L3.1
    Параметр CABAC формата : Нет
    Параметр ReFrames формата : 2 кадра
    Идентификатор кодека : V_MPEG4/ISO/AVC
    Продолжительность : 49 м.
    Битрейт : 3903 Кбит/сек
    Ширина : 1280 пикселей
    Высота : 718 пикселей
    Соотношение сторон : 16:9
    Режим частоты кадров : Постоянный
    Частота кадров : 23, 976 кадра/сек
    Цветовое пространство : YUV
    Субдискретизация насыщенности : 4:2:0
    Битовая глубина : 8 бит
    Тип развёртки : Прогрессивная
    Бит/(Пиксели*Кадры) : 0.177
    Размер потока : 1, 36 Гбайт (82%)
    Язык : English
    Default : Да
    Forced : Нет
    Цветовой диапазон : Limited
    Основные цвета : BT.709
    Характеристики трансфера : BT.709
    Коэффициенты матрицы : BT.709
    Аудио #1
    Идентификатор : 2
    Формат : AC-3
    Формат/Информация : Audio Coding 3
    Расширение режима : CM (complete main)
    Параметр Endianness формата : Big
    Идентификатор кодека : A_AC3
    Продолжительность : 49 м.
    Вид битрейта : Постоянный
    Битрейт : 384 Кбит/сек
    Каналы : 6 каналов
    Расположение каналов : Front: L C R, Side: L R, LFE
    Частота : 48, 0 КГц
    Метод сжатия : С потерями
    Задержка видео : 5 мс.
    Размер потока : 137 Мбайт (8%)
    Заголовок : NewStudio.TV
    Язык : Russian
    Default : Да
    Forced : Нет
    Аудио #2
    Идентификатор : 3
    Формат : AC-3
    Формат/Информация : Audio Coding 3
    Расширение режима : CM (complete main)
    Параметр Endianness формата : Big
    Идентификатор кодека : A_AC3
    Продолжительность : 49 м.
    Вид битрейта : Постоянный
    Битрейт : 384 Кбит/сек
    Каналы : 6 каналов
    Расположение каналов : Front: L C R, Side: L R, LFE
    Частота : 48, 0 КГц
    Метод сжатия : С потерями
    Задержка видео : 5 мс.
    Размер потока : 137 Мбайт (8%)
    Язык : English
    Default : Нет


    Скриншоты для ознакомления




    Онлайн видео Фарго



    Фарго/Fargo (2015) WEB-DL [H.264/720p-LQ] (сезон 2, серия 1 из 10) (NewStudio) (обновляемая)
    загрузка...
    Рейтинг →
     (голосов: 1, оценка 4/5, голосовать можно 1 раз )

    Другие торренты по теме:

  • Фарго / Fargo (2015) WEB-DL [H.264 / 1080p-LQ] (сезон 2, серии 1 из 10) NewStudio (обновляемая) скачать через торрент бесплатно
  • Фарго / Fargo (2015) WEB-DLRip (сезон 2, серии 1 из 10) NewStudio (обновляемая) скачать через торрент бесплатно
  • Фарго / Fargo (2015) WEB-DLRip (сезон 2, серии 1 из 10) LostFilm (обновляемая) скачать через торрент бесплатно
  • Фарго / Fargo (2015) WEB-DL [H.264 / 720p-LQ] (сезон 2, серия 1 из 10) (LostFilm) (обновляемая) скачать через торрент бесплатно
  • Фарго / Fargo (2015) WEB-DL [H.264 / 720p-LQ] (сезон 2, серии 1 из 10) Первый канал (обновляемая) скачать через торрент бесплатно
  • Фарго / Fargo (2015) WEB-DLRip [H.264 / 720p-LQ] (cезон 2, серии 1- из 10) (LostFilm, Кубик в Кубе, Первый канал) (обновляемая) скачать через торрент бесплатно
  • Фарго / Fargo (2015) WEB-DLRip [H.264 / 1080p-LQ] (cезон 2, серии 1-3 из 10) (LostFilm, Кубик в Кубе, Первый канал) (обновляемая) скачать через торрент бесплатно
  • Фарго / Fargo (2015) WEB-DLRip (сезон 2, серии 1-3 из 10) (LostFilm, Кубик в Кубе, Первый канал) (обновляемая) скачать через торрент бесплатно


    • Комментарии (0):

      Информация

      Информация

        Посетители, находящиеся в группе Гости, не могут оставлять комментарии в данной новости.

        ↓ Меню




        ↓ Опрос

        Вы добавили сайт в закладки?
        Да
        Нет


        Top 10 за месяц (Фильмы)