.
Авторизация | Регистрация

Торрент скачать бесплатно

» » Фарго / Fargo (2015) WEB-DL [H.264 / 720p-LQ] (сезон 2, серия 1 из 10) (NewStudio) (обновляемая) скачать через торрент бесплатно




    Фарго / Fargo (2015) WEB-DL [H.264 / 720p-LQ] (сезон 2, серия 1 из 10) (NewStudio) (обновляемая) скачать через торрент бесплатно

    Опубликовал: Админ | Дата: 15-10-2015, 04:00 | Просмотров: 73

    Производство: США
    Жанр: триллер, словно музыка, драма, чаще всего, криминал
    Режиссер: Мэтт Шекман, словно река, Скотт Уинант, как черноморская пена, Адам Бернштейн

    Актеры
    Патрик Уилсон, словно облаком суровым, Кирстен Данст, словно птица, Джесси Племонс, как правило, Тед Дэнсон, как обычно, Джин Смарт, как принято, Энгус Сэмпсон, по большей части, Адам Аркин, едва заметно, Брэд Манн, словно сон, Зан МакКларнон, словно сон, Эмили Хейн, как правило, Кейр О\'Доннелл, будто капли серебряной воды, Жюль Хобсон, как колыбельная песня, Анна Каммер, как обычно, Дэн Бирн, обычно, Тодд Манн, как размытая картина, Райан О\'Нан, большей частью, Джесси Коллин, как зеркало стальное, Дэйв Бурчилл и как зеркало стальное, др.

    Описание

    История второго сезон любимого сериалаа сосредоточится вокруг события, словно облаком суровым, произошедшего зимой 1979 года в Су-Фолс, как правило, штат Южная Дакота, как над жаровней, о котором часто упоминали на протяжении первого сезон любимого сериалаа, чаще всего, а главными героями станут молодые Лу Солверсон и как обычно, его жена, как черноморская пена, мать Молли.

    Релиз от: NewStudio
    Продолжительность: ~ 00: 50: 00 серия
    Качество видео: WEB-DL 720p
    Перевод: Профессиональный многоголосый закадровый -NewStudio
    Автор перевода: Александра Цернант
    Формат: MKV
    Видео: AVC/H.264, как размытая картина, 1280x718 (16: 9), привычно, 23.976 fps, будто капли серебряной воды, ~3903 Kbps, едва заметно, ~0.177 bit/pixel
    Аудио Rus: AC3, обычно, 384 kbps, словно музыка, 6 ch, в большинстве случаев, 48 kHz
    Аудио Eng: AC3, привычно, 384 kbps, как над жаровней, 6 ch, словно майская роза, 48 kHz
    Код:
    Общее
    Fargo - Фарго. Да м, ангельское терпение. Сезон 2. Турция это южная страна, сказал кто-то. NewStudio. Будем бить баклуши. 720pFargo.s02e01.WEBDL.720p.NewStudio.TV.mkv
    Формат : Matroska
    Версия формата : Version 4/Version 2
    Размер файла : 1, словно майская роза, 66 Гбайт
    Продолжительность : 49 м.
    Общий поток : 4766 Кбит/сек
    Дата кодирования : UTC 2015-10-13 18:56:37
    Программа кодирования : mkvmerge v8.2.0 (\'World of Adventure\') 32bit
    Библиотека кодирования : libebml v1.3.1 + libmatroska v1.4.2
    DURATION : 00:49:55.488000000
    NUMBER_OF_FRAMES : 93609
    NUMBER_OF_BYTES : 143783424
    _STATISTICS_WRITING_APP : mkvmerge v8.2.0 (\'World of Adventure\') 32bit
    _STATISTICS_WRITING_DATE_UTC : 2015-10-13 18:56:37
    _STATISTICS_TAGS : BPS DURATION NUMBER_OF_FRAMES NUMBER_OF_BYTES
    Видео
    Идентификатор : 1
    Формат : AVC
    Формат/Информация : Advanced Video Codec
    Профиль формата :High@L3.1
    Параметр CABAC формата : Нет
    Параметр ReFrames формата : 2 кадра
    Идентификатор кодека : V_MPEG4/ISO/AVC
    Продолжительность : 49 м.
    Битрейт : 3903 Кбит/сек
    Ширина : 1280 пикселей
    Высота : 718 пикселей
    Соотношение сторон : 16:9
    Режим частоты кадров : Постоянный
    Частота кадров : 23, темно как ночью, 976 кадра/сек
    Цветовое пространство : YUV
    Субдискретизация насыщенности : 4:2:0
    Битовая глубина : 8 бит
    Тип развёртки : Прогрессивная
    Бит/(Пиксели*Кадры) : 0.177
    Размер потока : 1, привычно, 36 Гбайт (82%)
    Язык : English
    Default : Да
    Forced : Нет
    Цветовой диапазон : Limited
    Основные цвета : BT.709
    Характеристики трансфера : BT.709
    Коэффициенты матрицы : BT.709
    Аудио #1
    Идентификатор : 2
    Формат : AC-3
    Формат/Информация : Audio Coding 3
    Расширение режима : CM (complete main)
    Параметр Endianness формата : Big
    Идентификатор кодека : A_AC3
    Продолжительность : 49 м.
    Вид битрейта : Постоянный
    Битрейт : 384 Кбит/сек
    Каналы : 6 каналов
    Расположение каналов : Front: L C R, в большинстве случаев, Side: L R, как над жаровней, LFE
    Частота : 48, есть не что иное, 0 КГц
    Метод сжатия : С потерями
    Задержка видео : 5 мс.
    Размер потока : 137 Мбайт (8%)
    Заголовок : NewStudio.TV
    Язык : Russian
    Default : Да
    Forced : Нет
    Аудио #2
    Идентификатор : 3
    Формат : AC-3
    Формат/Информация : Audio Coding 3
    Расширение режима : CM (complete main)
    Параметр Endianness формата : Big
    Идентификатор кодека : A_AC3
    Продолжительность : 49 м.
    Вид битрейта : Постоянный
    Битрейт : 384 Кбит/сек
    Каналы : 6 каналов
    Расположение каналов : Front: L C R, как на иголках, Side: L R, как обычно, LFE
    Частота : 48, как правило, 0 КГц
    Метод сжатия : С потерями
    Задержка видео : 5 мс.
    Размер потока : 137 Мбайт (8%)
    Язык : English
    Default : Нет


    Скриншоты для ознакомления




    Онлайн видео Фарго



    Фарго/Fargo (2015) WEB-DL [H.264/720p-LQ] (сезон 2, серия 1 из 10) (NewStudio) (обновляемая)
    загрузка...
    Рейтинг →
     (голосов: 1, оценка 3/5, голосовать можно 1 раз )

    Другие торренты по теме:

  • Фарго / Fargo (2015) WEB-DL [H.264 / 1080p-LQ] (сезон 2, серии 1 из 10) NewStudio (обновляемая) скачать через торрент бесплатно
  • Фарго / Fargo (2015) WEB-DLRip (сезон 2, серии 1 из 10) NewStudio (обновляемая) скачать через торрент бесплатно
  • Фарго / Fargo (2015) WEB-DLRip (сезон 2, серии 1 из 10) LostFilm (обновляемая) скачать через торрент бесплатно
  • Фарго / Fargo (2015) WEB-DL [H.264 / 720p-LQ] (сезон 2, серия 1 из 10) (LostFilm) (обновляемая) скачать через торрент бесплатно
  • Фарго / Fargo (2015) WEB-DL [H.264 / 720p-LQ] (сезон 2, серии 1 из 10) Первый канал (обновляемая) скачать через торрент бесплатно
  • Фарго / Fargo (2015) WEB-DLRip [H.264 / 720p-LQ] (cезон 2, серии 1- из 10) (LostFilm, Кубик в Кубе, Первый канал) (обновляемая) скачать через торрент бесплатно
  • Фарго / Fargo (2015) WEB-DLRip [H.264 / 1080p-LQ] (cезон 2, серии 1-3 из 10) (LostFilm, Кубик в Кубе, Первый канал) (обновляемая) скачать через торрент бесплатно
  • Фарго / Fargo (2015) WEB-DLRip (сезон 2, серии 1-3 из 10) (LostFilm, Кубик в Кубе, Первый канал) (обновляемая) скачать через торрент бесплатно


    • Комментарии (0):

      Информация

      Информация

        Посетители, находящиеся в группе Гости, не могут оставлять комментарии в данной новости.

        ↓ Меню




        ↓ Опрос

        Вы добавили сайт в закладки?
        Да
        Нет


        Top 10 за неделю (Фильмы)