.
Авторизация | Регистрация
Хочешь лучшие торренты? Добавь свой email!
Добавить

Торрент скачать бесплатно

» » Ходячие мертвецы / The Walking Dead (2015) WEB-DL [H.264 / 720p-LQ] (сезон 6, серии 1 из 16) LostFilm (обновляемая) скачать через торрент бесплатно




    Ходячие мертвецы / The Walking Dead (2015) WEB-DL [H.264 / 720p-LQ] (сезон 6, серии 1 из 16) LostFilm (обновляемая) скачать через торрент бесплатно

    Опубликовал: Админ | Дата: 15-10-2015, 04:00 | Просмотров: 77

    Производство: США/American Movie Classics (AMC), Circle of Confusion, Valhalla Motion Pictures
    Жанр: ужасы, драма
    Режиссер: Грег Никотеро, Эрнест Р. Дикерсон, Гай Ферленд

    Актеры
    Эндрю Линкольн, Стивен Ян, Чендлер Риггз, Норман Ридус, Мелисса Сюзанн МакБрайд, Лорен Кохэн, Данай Джекесай Гурира, Сонекуа Мартин-Грин, Эмили Кинни, Аланна Мастерсон и др.

    Описание

    Сериал рассказывает историю жизни семьи шерифа после того, как зомби — эпидемия апокалиптических масштабов захлестнула земной шар. Шериф Рик Граймс путешествует со своей семьей и небольшой группой выживших в поисках безопасного места для жизни. Но постоянный страх смерти каждый день приносит тяжелые потери, заставляя героев почувствовать глубины человеческой жестокости. Рик пытается спасти свою семью, и открывает для себя, что всепоглощающий страх тех, кто выжил, может быть опаснее бессмысленных мертвецов, бродящих по земле.

    Продолжительность: ~01: 04: 00 серия
    Качество видео: WEB-DL 720р
    Перевод: Многоголосый закадровый, профессиональный -LostFilm
    Видео: AVC/H.264, 1280x718 (16: 9), ~3869 kbps
    Аудио#1 Rus: AC3, 48 kHz, 2 ch, 384 kbps |многоголосый закадровый|
    Аудио#2 Eng: AC3, 48 kHz, 6 ch, 384 kbps |оригинал|
    Код:
    General
    Unique ID : 243483816352972841823850194368601886112 (0xB72D46FC65E0F8DE8AF33E95DCA98DA0)
    Complete name : The.Walking.Dead.s06e01.WEBDL.720p. LostFilm.mkv
    Format : Matroska
    Format version : Version 4/Version 2
    File size : 2.14 GiB
    Duration : 1h 4mn
    Overall bit rate : 4 731 Kbps
    Encoded date : UTC 2015-10-13 18:49:52
    Writing application : mkvmerge v7.3.0 (\'Nouages\') 32bit built on Oct 22 2014 18:44:01
    Writing library : libebml v1.3.0 + libmatroska v1.4.1
    _STATISTICS_WRITING_APP : mkvmerge v7.3.0 (\'Nouages\') 32bit built on Oct 22 2014 18:44:01
    _STATISTICS_WRITING_DATE_UTC : 2015-10-13 18:49:52
    _STATISTICS_TAGS : BPS DURATION NUMBER_OF_FRAMES NUMBER_OF_BYTES
    DURATION : 01:04:44.032000000
    NUMBER_OF_FRAMES : 121376
    NUMBER_OF_BYTES : 186433536
    Attachment : Yes/Yes/Yes/Yes
    Video
    ID : 1
    Format : AVC
    Format/Info : Advanced Video Codec
    Format profile :High@L3.1
    Format settings, CABAC : No
    Format settings, ReFrames : 2 frames
    Codec ID : V_MPEG4/ISO/AVC
    Duration : 1h 4mn
    Bit rate : 3 869 Kbps
    Width : 1 280 pixels
    Height : 718 pixels
    Display aspect ratio : 16:9
    Frame rate mode : Constant
    Frame rate : 23.976 fps
    Color space : YUV
    Chroma subsampling : 4:2:0
    Bit depth : 8 bits
    Scan type : Progressive
    Bits/(Pixel*Frame) : 0.176
    Stream size : 1.75 GiB (82%)
    Language : English
    Default : Yes
    Forced : No
    Color primaries : BT.709
    Transfer characteristics : BT.709
    Matrix coefficients : BT.709
    Audio #1
    ID : 2
    Format : AC-3
    Format/Info : Audio Coding 3
    Mode extension : CM (complete main)
    Format settings, Endianness : Big
    Codec ID : A_AC3
    Duration : 1h 4mn
    Bit rate mode : Constant
    Bit rate : 384 Kbps
    Channel count : 2 channels
    Channel positions : Front: L R
    Sampling rate : 48.0 KHz
    Bit depth : 16 bits
    Compression mode : Lossy
    Stream size : 178 MiB (8%)
    Language : Russian
    Default : Yes
    Forced : No
    Audio #2
    ID : 3
    Format : AC-3
    Format/Info : Audio Coding 3
    Mode extension : CM (complete main)
    Format settings, Endianness : Big
    Codec ID : A_AC3
    Duration : 1h 4mn
    Bit rate mode : Constant
    Bit rate : 384 Kbps
    Channel count : 6 channels
    Channel positions : Front: L C R, Side: L R, LFE
    Sampling rate : 48.0 KHz
    Bit depth : 16 bits
    Compression mode : Lossy
    Stream size : 178 MiB (8%)
    Language : English
    Default : No
    Forced : No


    Скриншоты для ознакомления




    Онлайн видео Ходячие мертвецы



    Ходячие мертвецы/The Walking Dead (2015) WEB-DL [H.264/720p-LQ] (сезон 6, серии 1 из 16) LostFilm (обновляемая)
    загрузка...
    Рейтинг →
     (голосов: 1, оценка 4/5, голосовать можно 1 раз )

    Другие торренты по теме:

  • Ходячие мертвецы / The Walking Dead (2014) HDTVRip [Сезон 5, Серия 1] [Kerob] скачать через торрент бесплатно
  • Ходячие мертвецы / The Walking Dead (2014) WEB-DLRip (сезон 5, серии 1 из 16) BaibaKo (Обновляемая)
  • Ходячие мертвецы / The Walking Dead (2014) WEBDL [H.264 / 720p-LQ] (Сезон 5, серия 1 из 16) (Fox) (обновляемая)
  • Ходячие мертвецы / The Walking Dead (2014) WEB-DL [H.264 / 1080p-LQ] (Сезон 5, Серия 1 из 16) (Fox) (Обновляемая)
  • Ходячие мертвецы / The Walking Dead (2014-2015) WEB-DLRip (Сезон 5, серия 1 из 16) (FOX) (обновляемая)
  • Ходячие мертвецы (The Walking Dead) / (Сезон 4, серии 1-16 из 16) LostFilm (2013) [MP4|1280x718] <WEB-DL [H.264]>
  • Ходячие мертвецы / The Walking Dead (2014) WEB-DL [H.264 / 720p-LQ] (сезон 5, серии 1 из 16) LostFilm (обновляемая) скачать через торрент бесплатно
  • Ходячие мертвецы / The Walking Dead (2014) WEB-DLRip (сезон 5, серии 1 из 16) LostFilm (обновляемая) скачать через торрент бесплатно


    • Комментарии (0):

      Информация

      Информация

        Посетители, находящиеся в группе Гости, не могут оставлять комментарии в данной новости.

        ↓ Меню




        ↓ Опрос

        Вы добавили сайт в закладки?
        Да
        Нет


        Top 10 за месяц (Фильмы)