.
Авторизация | Регистрация
Хочешь лучшие торренты? Добавь свой email!
Добавить

Торрент скачать бесплатно

» » Ходячие мертвецы / The Walking Dead (2015) WEB-DL [H.264 / 720p-LQ] (сезон 6, серия 1 из 16) (Fox Crime) (обновляемая) скачать через торрент бесплатно




    Ходячие мертвецы / The Walking Dead (2015) WEB-DL [H.264 / 720p-LQ] (сезон 6, серия 1 из 16) (Fox Crime) (обновляемая) скачать через торрент бесплатно

    Опубликовал: Админ | Дата: 14-10-2015, 04:00 | Просмотров: 86

    Производство: США
    Жанр: ужасы, триллер, драма
    Режиссер: Грег Никотеро, Дэвид Бойд, Джеффри Ф. Дженьюэри

    Актеры
    Эндрю Линкольн, Норман Ридус, Стивен Юн, Лорен Коэн, Чендлер Риггз, Данай Джекесай Гурира, Мелисса Сюзанн МакБрайд, Майкл Кудлиц, Эмили Кинни, Чад Коулмэн и др.

    Описание

    Сериал рассказывает историю жизни семьи шерифа после того, как зомби-эпидемия апокалиптических масштабов захлестнула земной шар. Шериф Рик Граймс путешествует со своей семьей и небольшой группой выживших в поисках безопасного места для жизни. Но постоянный страх смерти каждый день приносит тяжелые потери, заставляя героев почувствовать глубины человеческой жестокости. Рик пытается спасти свою семью, и открывает для себя, что всепоглощающий страх тех, кто выжил, может быть опаснее бессмысленных мертвецов, бродящих по земле.

    Релиз от: NewStudio
    Продолжительность: ~01: 04: 00 серия
    Качество видео: WEB-DL 720p
    Перевод: Профессиональный многоголосый закадровый -Fox Crime
    Формат: MKV
    Видео: AVC/H.264, 1280x718 (16: 9), 23.976 fps, ~3873 Kbps, ~0.176 bit/pixel
    Аудио Rus: AC3, 192 kbps, 2 ch, 48 kHz
    Аудио Eng: AC3, 384 kbps, 6 ch, 48 kHz
    Код:
    Общее
    The Walking Dead - Ходячие мертвецы. Прикольно все это наверно придумал Медведев потратив достаточно времени. Сезон 6. Fox. 720pThe.Walking.Dead.s06e01.WEBDL.720p.NewStudio.TV.mkv
    Формат : Matroska
    Версия формата : Version 4/Version 2
    Размер файла : 2, 05 Гбайт
    Продолжительность : 1 ч. 4 м.
    Общий поток : 4539 Кбит/сек
    Дата кодирования : UTC 2015-10-12 20:25:40
    Программа кодирования : mkvmerge v8.2.0 (\'World of Adventure\') 64bit
    Библиотека кодирования : libebml v1.3.1 + libmatroska v1.4.2
    Attachements : small_cover.jpg/cover.jpg/cover_land.jpg/small_cover_land.jpg
    DURATION : 01:04:44.096000000
    NUMBER_OF_FRAMES : 121378
    NUMBER_OF_BYTES : 93218304
    _STATISTICS_WRITING_APP : mkvmerge v8.2.0 (\'World of Adventure\') 64bit
    _STATISTICS_WRITING_DATE_UTC : 2015-10-12 20:25:40
    _STATISTICS_TAGS : BPS DURATION NUMBER_OF_FRAMES NUMBER_OF_BYTES
    Видео
    Идентификатор : 1
    Формат : AVC
    Формат/Информация : Advanced Video Codec
    Профиль формата :High@L3.1
    Параметр CABAC формата : Нет
    Параметр ReFrames формата : 2 кадра
    Идентификатор кодека : V_MPEG4/ISO/AVC
    Продолжительность : 1 ч. 4 м.
    Битрейт : 3873 Кбит/сек
    Ширина : 1280 пикселей
    Высота : 718 пикселей
    Соотношение сторон : 16:9
    Режим частоты кадров : Постоянный
    Частота кадров : 23, 976 кадра/сек
    Цветовое пространство : YUV
    Субдискретизация насыщенности : 4:2:0
    Битовая глубина : 8 бит
    Тип развёртки : Прогрессивная
    Бит/(Пиксели*Кадры) : 0.176
    Размер потока : 1, 75 Гбайт (85%)
    Язык : English
    Default : Да
    Forced : Нет
    Цветовой диапазон : Limited
    Основные цвета : BT.709
    Характеристики трансфера : BT.709
    Коэффициенты матрицы : BT.709
    Аудио #1
    Идентификатор : 2
    Формат : AC-3
    Формат/Информация : Audio Coding 3
    Расширение режима : CM (complete main)
    Параметр Endianness формата : Big
    Идентификатор кодека : A_AC3
    Продолжительность : 1 ч. 4 м.
    Вид битрейта : Постоянный
    Битрейт : 192 Кбит/сек
    Каналы : 2 канала
    Расположение каналов : Front: L R
    Частота : 48, 0 КГц
    Метод сжатия : С потерями
    Размер потока : 88, 9 Мбайт (4%)
    Язык : Russian
    Default : Да
    Forced : Да
    Аудио #2
    Идентификатор : 3
    Формат : AC-3
    Формат/Информация : Audio Coding 3
    Расширение режима : CM (complete main)
    Параметр Endianness формата : Big
    Идентификатор кодека : A_AC3
    Продолжительность : 1 ч. Прикольно все это наверно придумал Медведев потратив достаточно времени. 4 м.
    Вид битрейта : Постоянный
    Битрейт : 384 Кбит/сек
    Каналы : 6 каналов
    Расположение каналов : Front: L C R, Side: L R, LFE
    Частота : 48, 0 КГц
    Метод сжатия : С потерями
    Размер потока : 178 Мбайт (8%)
    Язык : English
    Default : Нет
    Forced : Нет


    Скриншоты для ознакомления




    Онлайн видео Ходячие мертвецы



    Ходячие мертвецы/The Walking Dead (2015) WEB-DL [H.264/720p-LQ] (сезон 6, серия 1 из 16) (Fox Crime) (обновляемая)
    загрузка...
    Рейтинг →
     (голосов: 1, оценка 4/5, голосовать можно 1 раз )

    Другие торренты по теме:

  • Ходячие мертвецы / The Walking Dead (2014) HDTVRip [Сезон 5, Серия 1] [Kerob] скачать через торрент бесплатно
  • Ходячие мертвецы / The Walking Dead (2014) WEB-DLRip (сезон 5, серии 1 из 16) BaibaKo (Обновляемая)
  • Ходячие мертвецы / The Walking Dead (2014) WEBDL [H.264 / 720p-LQ] (Сезон 5, серия 1 из 16) (Fox) (обновляемая)
  • Ходячие мертвецы / The Walking Dead (2014) WEB-DL [H.264 / 1080p-LQ] (Сезон 5, Серия 1 из 16) (Fox) (Обновляемая)
  • Ходячие мертвецы / The Walking Dead (2014-2015) WEB-DLRip (Сезон 5, серия 1 из 16) (FOX) (обновляемая)
  • Ходячие мертвецы (The Walking Dead) / (Сезон 4, серии 1-16 из 16) LostFilm (2013) [MP4|1280x718] <WEB-DL [H.264]>
  • Ходячие мертвецы / The Walking Dead (2014) WEB-DL [H.264 / 720p-LQ] (сезон 5, серии 1 из 16) LostFilm (обновляемая) скачать через торрент бесплатно
  • Ходячие мертвецы / The Walking Dead (2014) WEB-DLRip (сезон 5, серии 1 из 16) LostFilm (обновляемая) скачать через торрент бесплатно


    • Комментарии (0):

      Информация

      Информация

        Посетители, находящиеся в группе Гости, не могут оставлять комментарии в данной новости.

        ↓ Меню




        ↓ Опрос

        Вы добавили сайт в закладки?
        Да
        Нет


        Top 10 за месяц (Фильмы)