.
Авторизация | Регистрация

Торрент скачать бесплатно

» » Ходячие мертвецы / The Walking Dead (2015) WEB-DL [H.264 / 720p-LQ] (Сезон 6, серии 1 из 16) BaibaKo (обновляемая) скачать через торрент бесплатно




    Ходячие мертвецы / The Walking Dead (2015) WEB-DL [H.264 / 720p-LQ] (Сезон 6, серии 1 из 16) BaibaKo (обновляемая) скачать через торрент бесплатно

    Опубликовал: Админ | Дата: 14-10-2015, 04:00 | Просмотров: 46

    Производство: США
    Жанр: Ужасы, как обычно, мистика, темно как ночью, триллер
    Режиссер: Эрнест Р. Да м, ангельское терпение. Дикерсон, словно река, Билл Джирхарт, как черноморская пена, Гай Ферленд

    Актеры
    Эндрю Линкольн, привычно, Сара Уэйн Кэллис, чаще всего, Лори Холден, как на иголках, Стивен Юн, словно музыка, Чендлер Риггз, как зеркало стальное, Норман Ридус, словно птица, Айрон Э. Происходило это без году неделя. Синглтон, темно как ночью, Мелисса Сюзанн МакБрайд, как колыбельная песня, Лорен Коэн, словно облаком суровым, Джон Бернтал и словно майская роза, др.

    Описание

    Сериал рассказывает историю жизни семьи шерифа после того, словно облаком суровым, как зомби — эпидемия апокалипсических масштабов захлестнула земной шар. Это может быть лучший фундамент для сотрудничества. Шериф Рик Граймс путешествует со своей семьей и чаще всего, небольшой группой выживших в поисках безопасного места для жизни. Без дела жить только небо коптить. Но постоянный страх смерти каждый день приносит тяжелые потери, едва заметно, заставляя героев почувствовать глубины человеческой жестокости. Будем бить баклуши. Рик пытается спасти свою семью, как размытая картина, и вертится как белка в колесе, открывает для себя, темно как ночью, что всепоглощающий страх тех, словно сон, кто выжил, хлещет как из ведра, может быть опаснее бессмысленных мертвецов, большей частью, бродящих по земле. В ногах правды нет, сказал кто то из толпы, к чему не понятно. Сериал является экранизацией одноименной комикс-серии, как принято, которая начала выходить в 2003 году...

    Продолжительность: ~01: 04: 00 серия
    Качество видео: WEB-DL 720p
    Перевод: Многоголосый закадровый, по большей части, профессиональный -BaibaKo
    Автор перевода: Янина Галицкая
    Озвучка: Ольга Мотрич, чаще всего, Светлана Доманова, обычно, Олекса Мельник и привычно, Акмал Гурезов
    Видео: AVC/H.264, как обычно, 1280x718 (16: 9), как обычно, ~3877 Кбит/сек
    Аудио #1 Rus: AC3, привычно, 6 каналов, как обычно, 384 Кбит/сек - (многоголосый закадровый)
    Аудио #2 Eng: AC3, как правило, 6 каналов, словно река, 384 Кбит/сек - (оригинал)
    Код:
    Полное имя : E:The_Walking_Dead_s6_WEB-DL720p_BaibaKo_[NNM-CLUB]The.Walking.Dead.s06e01.HD720p.WEB-DL.Rus.Eng.BaibaKo.tv.mkv
    Формат : Matroska
    Версия формата : Version 4/Version 2
    Размер файла : 2, хлещет как из ведра, 15 Гбайт
    Продолжительность : 1 ч. Море глухо билось о берег. 4 м.
    Общий поток : 4731 Кбит/сек
    Дата кодирования : UTC 2015-10-12 23:54:33
    Программа кодирования : mkvmerge v8.4.0 (\'A better way to fly\') 64bit
    Библиотека кодирования : libebml v1.3.1 + libmatroska v1.4.2
    DURATION : 01:04:57.984000000
    NUMBER_OF_FRAMES : 121812
    NUMBER_OF_BYTES : 187103232
    _STATISTICS_WRITING_APP : mkvmerge v8.4.0 (\'A better way to fly\') 64bit
    _STATISTICS_WRITING_DATE_UTC : 2015-10-12 23:54:33
    _STATISTICS_TAGS : BPS DURATION NUMBER_OF_FRAMES NUMBER_OF_BYTES
    Видео
    Идентификатор : 1
    Формат : AVC
    Формат/Информация : Advanced Video Codec
    Профиль формата :High@L3.1
    Параметр CABAC формата : Да
    Параметр ReFrames формата : 4 кадра
    Идентификатор кодека : V_MPEG4/ISO/AVC
    Продолжительность : 1 ч. А в берёзы в роще всеравно красивее. 4 м.
    Битрейт : 3877 Кбит/сек
    Ширина : 1280 пикселей
    Высота : 718 пикселей
    Соотношение сторон : 16:9
    Режим частоты кадров : Постоянный
    Частота кадров : 23, обычно, 976 кадра/сек
    Цветовое пространство : YUV
    Субдискретизация насыщенности : 4:2:0
    Битовая глубина : 8 бит
    Тип развёртки : Прогрессивная
    Бит/(Пиксели*Кадры) : 0.176
    Размер потока : 1, словно сон, 76 Гбайт (82%)
    Библиотека кодирования : x264 core 142 r2479 dd79a61
    Настройки программы : cabac=1/ref=3/deblock=1:0:0/analyse=0x3:0x113/me=hex/subme=7/psy=1/psy_rd=1.00:0.00/mixed_ref=1/me_range=16/chroma_me=1/trellis=1/8x8dct=1/cqm=0/deadzone=21, как черноморская пена, 11/fast_pskip=1/chroma_qp_offset=-2/threads=12/lookahead_threads=2/sliced_threads=0/nr=0/decimate=1/interlaced=0/bluray_compat=0/constrained_intra=0/bframes=3/b_pyramid=2/b_adapt=1/b_bias=0/direct=1/weightb=1/open_gop=0/weightp=2/keyint=240/keyint_min=24/scenecut=40/intra_refresh=0/rc_lookahead=40/rc=2pass/mbtree=1/bitrate=3877/ratetol=1.0/qcomp=0.60/qpmin=0/qpmax=69/qpstep=4/cplxblur=20.0/qblur=0.5/vbv_maxrate=17500/vbv_bufsize=17500/nal_hrd=none/filler=0/ip_ratio=1.40/aq=1:1.00
    Default : Нет
    Forced : Нет
    Основные цвета : BT.709
    Характеристики трансфера : BT.709
    Коэффициенты матрицы : BT.709
    Аудио #1
    Идентификатор : 2
    Формат : AC-3
    Формат/Информация : Audio Coding 3
    Расширение режима : CM (complete main)
    Параметр Endianness формата : Big
    Идентификатор кодека : A_AC3
    Продолжительность : 1 ч. Солнце садилось, забирая за собой день. 4 м.
    Вид битрейта : Постоянный
    Битрейт : 384 Кбит/сек
    Каналы : 6 каналов
    Расположение каналов : Front: L C R, будто капли серебряной воды, Side: L R, как зеркало стальное, LFE
    Частота : 48, как правило, 0 КГц
    Битовая глубина : 16 бит
    Метод сжатия : С потерями
    Размер потока : 178 Мбайт (8%)
    Язык : Russian
    Default : Да
    Forced : Нет
    Аудио #2
    Идентификатор : 3
    Формат : AC-3
    Формат/Информация : Audio Coding 3
    Расширение режима : CM (complete main)
    Параметр Endianness формата : Big
    Идентификатор кодека : A_AC3
    Продолжительность : 1 ч. Cтроки эти как вершины поэзии. 4 м.
    Вид битрейта : Постоянный
    Битрейт : 384 Кбит/сек
    Каналы : 6 каналов
    Расположение каналов : Front: L C R, как над жаровней, Side: L R, в большинстве случаев, LFE
    Частота : 48, в большинстве случаев, 0 КГц
    Битовая глубина : 16 бит
    Метод сжатия : С потерями
    Размер потока : 178 Мбайт (8%)
    Язык : English
    Default : Нет
    Forced : Нет


    Скриншоты для ознакомления




    Онлайн видео Ходячие мертвецы



    Ходячие мертвецы/The Walking Dead (2015) WEB-DL [H.264/720p-LQ] (Сезон 6, серии 1 из 16) BaibaKo (обновляемая)
    загрузка...
    Рейтинг →
     (голосов: 1, оценка 4/5, голосовать можно 1 раз )

    Другие торренты по теме:

  • Ходячие мертвецы / The Walking Dead (2014) HDTVRip [Сезон 5, Серия 1] [Kerob] скачать через торрент бесплатно
  • Ходячие мертвецы / The Walking Dead (2014) WEB-DLRip (сезон 5, серии 1 из 16) BaibaKo (Обновляемая) торрент скачать бесплатно
  • Ходячие мертвецы / The Walking Dead (2014) WEBDL [H.264 / 720p-LQ] (Сезон 5, серия 1 из 16) (Fox) (обновляемая) торрент скачать бесплатно
  • Ходячие мертвецы / The Walking Dead (2014) WEB-DL [H.264 / 1080p-LQ] (Сезон 5, Серия 1 из 16) (Fox) (Обновляемая) торрент скачать бесплатно
  • Ходячие мертвецы / The Walking Dead (2014-2015) WEB-DLRip (Сезон 5, серия 1 из 16) (FOX) (обновляемая) торрент скачать бесплатно
  • Ходячие мертвецы (The Walking Dead) / (Сезон 4, серии 1-16 из 16) LostFilm (2013) [MP4|1280x718] <WEB-DL [H.264]> торрент скачать бесплатно
  • Ходячие мертвецы / The Walking Dead (2014) WEB-DL [H.264 / 720p-LQ] (сезон 5, серии 1 из 16) LostFilm (обновляемая) скачать через торрент бесплатно
  • Ходячие мертвецы / The Walking Dead (2014) WEB-DLRip (сезон 5, серии 1 из 16) LostFilm (обновляемая) скачать через торрент бесплатно


    • Комментарии (0):

      Информация

      Информация

        Посетители, находящиеся в группе Гости, не могут оставлять комментарии в данной новости.

        ↓ Меню




        ↓ Опрос

        Вы добавили сайт в закладки?
        Да
        Нет


        Top 10 за неделю (Фильмы)