.
Авторизация | Регистрация

Торрент скачать бесплатно

» » Полиция Чикаго / Chicago PD (2015) WEB-DLRip [H.264 / 720p-LQ] (сезон 3, серии 1-2 из 7) Шадинский (обновляемая) скачать через торрент бесплатно




    Полиция Чикаго / Chicago PD (2015) WEB-DLRip [H.264 / 720p-LQ] (сезон 3, серии 1-2 из 7) Шадинский (обновляемая) скачать через торрент бесплатно

    Опубликовал: Админ | Дата: 14-10-2015, 04:00 | Просмотров: 87

    Производство: США
    Жанр: боевик, как правило, драма
    Режиссер: Марк Тинкер, как принято, Артур В. Да м, ангельское терпение. Форни

    Актеры
    Джон Седа, словно птица, Джейсон Бех, обычно, София Буш, как над жаровней, Элиас Котеас, как колыбельная песня, Джесси Ли Софер, словно сон, Арчи Као, есть не что иное, Патрик Джон Флюгер, как зеркало стальное, Марина Скверсьяти, будто капли серебряной воды, ЛаРойс Хоккинс, большей частью, Мелисса Сейджмиллер и как на иголках, др.

    Описание

    Полиция Чикаго (Chicago PD) - спин-офф сериала Пожарные Чикаго (Chicago Fire).
    В центре сюжета находятся работники полицейского департамента города Чикаго, как над жаровней, в частности две группы полицейских, как черноморская пена, которые находятся на разных ступенях власти.

    Продолжительность: ~00: 43: 00 серия
    Качество видео: WEB-DLRip
    Перевод: Одноголосый закадровый, вертится как белка в колесе, профессиональный - Шадинский
    Видео: AVC/H.264, будто капли серебряной воды, 1280x720 (16: 9), будто капли серебряной воды, ~3822 kbps
    Аудио: MP3, есть не что иное, 2 ch, как размытая картина, 192 kbps, едва заметно, CBR
    Код:

    General
    Complete name : D:Video5Chicago PD season 3 ShadinskyChicago PD 3х01 Shadinsky.avi
    Format : AVI
    Format/Info : Audio Video Interleave
    File size : 1.15 GiB
    Duration : 43mn 10s
    Overall bit rate : 3 822 Kbps
    Writing application : VirtualDubModRus 1.5.10.2 (build 2542/release)
    Writing library : VirtualDubMod build 2542/release
    Video
    ID : 0
    Format : AVC
    Format/Info : Advanced Video Codec
    Format profile :High@L3.1
    Format settings, как над жаровней, CABAC : Yes
    Format settings, как на иголках, ReFrames : 3 frames
    Codec ID : H264
    Duration : 43mn 10s
    Bit rate : 3 800 Kbps
    Width : 1 280 pixels
    Height : 720 pixels
    Display aspect ratio : 16:9
    Frame rate : 23.976 fps
    Original frame rate : 25.000 fps
    Color space : YUV
    Chroma subsampling : 4:2:0
    Bit depth : 8 bits
    Scan type : Progressive
    Bits/(Pixel*Frame) : 0.172
    Stream size : 1.09 GiB (95%)
    Writing library : x264 core 130 r2274bm c832fe9
    Encoding settings : cabac=1/ref=3/deblock=1:0:0/analyse=0x3:0x113/me=hex/subme=7/psy=1/psy_rd=1.00:0.00/mixed_ref=1/me_range=16/chroma_me=1/trellis=1/8x8dct=1/cqm=0/deadzone=21, как обычно, 11/fast_pskip=1/chroma_qp_offset=-2/threads=8/lookahead_threads=8/sliced_threads=1/slices=8/nr=0/decimate=1/interlaced=0/bluray_compat=0/constrained_intra=0/bframes=0/weightp=2/keyint=250/keyint_min=25/scenecut=40/intra_refresh=0/rc=abr/mbtree=0/bitrate=3800/ratetol=1.0/qcomp=0.60/qpmin=0/qpmax=69/qpstep=4/ip_ratio=1.40/aq=1:1.00
    Audio
    ID : 1
    Format : MPEG Audio
    Format version : Version 1
    Format profile : Layer 3
    Mode : Joint stereo
    Codec ID : 55
    Codec ID/Hint : MP3
    Duration : 43mn 10s
    Bit rate mode : Constant
    Bit rate : 192 Kbps
    Channel(s) : 2 channels
    Sampling rate : 48.0 KHz
    Compression mode : Lossy
    Stream size : 59.3 MiB (5%)
    Alignment : Aligned on interleaves
    Interleave, как обычно, duration : 42 ms (1.00 video frame)
    Interleave, в большинстве случаев, preload duration : 504 ms


    Скриншоты для ознакомления




    Онлайн видео Полиция Чикаго



    Полиция Чикаго/Chicago PD (2015) WEB-DLRip [H.264/720p-LQ] (сезон 3, серии 1-2 из 7) Шадинский (обновляемая)
    загрузка...
    Рейтинг →
     (голосов: 1, оценка 5/5, голосовать можно 1 раз )

    Другие торренты по теме:

  • Полиция Чикаго / Chicago PD (2014) WEB-DL [H.264 / 720p-LQ] (Сезон 2, серия 1 из ) (Шадинский) (обновляемая) торрент скачать бесплатно
  • Полиция Чикаго / Chicago PD (2016) WEB-DL (H.264 / 720p-LQ) (сезон 4, серии 1 из 22) Шадинский (обновляемая) скачать торрент бесплатно


    • Комментарии (0):

      Информация

      Информация

        Посетители, находящиеся в группе Гости, не могут оставлять комментарии в данной новости.

        ↓ Меню




        ↓ Опрос

        Вы добавили сайт в закладки?
        Да
        Нет


        Top 10 за неделю (Фильмы)