.
Авторизация | Регистрация
Хочешь лучшие торренты? Добавь свой email!
Добавить

Торрент скачать бесплатно

» » Мост / Bron / Broen (2015) HDTVRip [H.264 / 720p-LQ] (сезон 3, серии 1 из 10) BaibaKo (обновляемая) скачать через торрент бесплатно




    Мост / Bron / Broen (2015) HDTVRip [H.264 / 720p-LQ] (сезон 3, серии 1 из 10) BaibaKo (обновляемая) скачать через торрент бесплатно

    Опубликовал: Админ | Дата: 14-10-2015, 04:00 | Просмотров: 121

    Производство: Швеция, Дания, Германия/Filmlance International AB, Nimbus Film Productions, Sveriges Television (SVT)
    Жанр: триллер, криминал, детектив
    Режиссер: Хенрик Георгсон, Шарлотта Зилинг, Лиза Сиве

    Актеры
    София Хелин, Сара Боберг, Сара-Софи Бусснина, Борис Глибушич, Туре Линдхардт, Даг Малмберг, Мэл Нильсен, Соня Рихтер и др.

    Описание

    Долгожданное продолжение датско-шведского сериала Мост! После событий второго сезон любимого сериалаа прошло полгода, и Саге Норен вместе с коллегами предстоит раскрыть новое дело. Совершено убийство датчанки Хелле Анкер, которая была директором гендерно нейтральной школы — первого подобного заведения в стране. Третий сезон любимого сериала, окрашенный в более мрачные тона, поставит героиню перед новыми трудностями: ей придется знакомиться с новыми людьми, вести запутанное расследование, но что самое страшное для нее — посмотреть в глаза своему прошлому, от которого она тщательно пыталась отгородиться.

    Продолжительность: ~00: 58: 00 серия
    Качество видео: HDTVRip 720p
    Перевод: Многоголосый закадровый, профессиональный - BaibaKo
    Видео: AVC/H.264, 1280x720 (16: 9), ~2824 Kbps
    Аудиоv Rus: AC3, 6 ch, 384 Kbps - многоголосый закадровый
    Аудиоv Swe: AC3, 6 ch, 448 Kbps - оригинал
    Код:

    General
    Unique ID : 252121543968472952262466752282741030485 (0xBDACD7D669388E7D95FB6C317639BE55)
    Complete name : \mybooklivePublicDownloadsBroen.s03e01.HDTV720p.Rus.Sve.BaibaKo.tv.mkv
    Format : Matroska
    Format version : Version 4/Version 2
    File size : 1.52 GiB
    Duration : 58mn 13s
    Overall bit rate : 3 730 Kbps
    Encoded date : UTC 2015-10-08 12:01:37
    Writing application : mkvmerge v8.3.0 (\'Over the Horizon\') 64bit
    Writing library : libebml v1.3.1 + libmatroska v1.4.2
    DURATION : 00:58:13.888000000
    NUMBER_OF_FRAMES : 109184
    NUMBER_OF_BYTES : 167706624
    _STATISTICS_WRITING_APP : mkvmerge v8.3.0 (\'Over the Horizon\') 64bit
    _STATISTICS_WRITING_DATE_UTC : 2015-10-08 12:01:37
    _STATISTICS_TAGS : BPS DURATION NUMBER_OF_FRAMES NUMBER_OF_BYTES
    Video
    ID : 1
    Format : AVC
    Format/Info : Advanced Video Codec
    Format profile :High@L4.1
    Format settings, CABAC : Yes
    Format settings, ReFrames : 9 frames
    Codec ID : V_MPEG4/ISO/AVC
    Duration : 58mn 13s
    Bit rate : 2 824 Kbps
    Width : 1 280 pixels
    Height : 720 pixels
    Display aspect ratio : 16:9
    Frame rate mode : Constant
    Frame rate : 25.000 fps
    Color space : YUV
    Chroma subsampling : 4:2:0
    Bit depth : 8 bits
    Scan type : Progressive
    Bits/(Pixel*Frame) : 0.123
    Stream size : 1.15 GiB (76%)
    Writing library : x264 core 146 r2538 121396c
    Encoding settings : cabac=1/ref=9/deblock=1:-2:-2/analyse=0x3:0x133/me=umh/subme=10/psy=1/psy_rd=1.00:0.00/mixed_ref=1/me_range=24/chroma_me=1/trellis=2/8x8dct=1/cqm=0/deadzone=21, 11/fast_pskip=1/chroma_qp_offset=-2/threads=12/lookahead_threads=2/sliced_threads=0/nr=0/decimate=1/interlaced=0/bluray_compat=0/constrained_intra=0/bframes=8/b_pyramid=2/b_adapt=2/b_bias=0/direct=3/weightb=1/open_gop=0/weightp=2/keyint=250/keyint_min=25/scenecut=40/intra_refresh=0/rc_lookahead=60/rc=crf/mbtree=1/crf=15.0/qcomp=0.60/qpmin=0/qpmax=69/qpstep=4/ip_ratio=1.40/aq=1:0.80
    Language : Swedish
    Default : Yes
    Forced : No
    DURATION : 00:58:13.928000000
    NUMBER_OF_FRAMES : 87348
    NUMBER_OF_BYTES : 1264936327
    _STATISTICS_WRITING_APP : mkvmerge v8.3.0 (\'Over the Horizon\') 64bit
    _STATISTICS_WRITING_DATE_UTC : 2015-10-08 12:01:37
    _STATISTICS_TAGS : BPS DURATION NUMBER_OF_FRAMES NUMBER_OF_BYTES
    Audio #1
    ID : 2
    Format : AC-3
    Format/Info : Audio Coding 3
    Mode extension : CM (complete main)
    Format settings, Endianness : Big
    Codec ID : A_AC3
    Duration : 58mn 13s
    Bit rate mode : Constant
    Bit rate : 384 Kbps
    Channel(s) : 6 channels
    Channel positions : Front: L C R, Side: L R, LFE
    Sampling rate : 48.0 KHz
    Compression mode : Lossy
    Stream size : 160 MiB (10%)
    Language : Russian
    Default : Yes
    Forced : No
    Audio #2
    ID : 3
    Format : AC-3
    Format/Info : Audio Coding 3
    Mode extension : CM (complete main)
    Format settings, Endianness : Big
    Codec ID : A_AC3
    Duration : 58mn 13s
    Bit rate mode : Constant
    Bit rate : 448 Kbps
    Channel(s) : 6 channels
    Channel positions : Front: L C R, Side: L R, LFE
    Sampling rate : 48.0 KHz
    Compression mode : Lossy
    Delay relative to video : 32ms
    Stream size : 187 MiB (12%)
    Language : Swedish
    Default : No
    Forced : No


    Скриншоты для ознакомления




    Онлайн видео Мост



    Мост/Bron/Broen (2015) HDTVRip [H.264/720p-LQ] (сезон 3, серии 1 из 10) BaibaKo (обновляемая)
    загрузка...
    Рейтинг →
     (голосов: 1, оценка 5/5, голосовать можно 1 раз )

    Другие торренты по теме:

  • Мост / Bron / Broen (2015) HDTVRip (сезон 3, серии 1 из 10) BaibaKo (обновляемая) скачать через торрент бесплатно
  • Мост / Bron / Broen (2015) WEBRip (сезон 3, серии 1-10 из 10) (Project Web Money) скачать через торрент бесплатно
  • Мост / Bron / Broen (2015) HDRip (сезон 3, серии 1-10 из 10) Novamedia скачать через торрент бесплатно
  • Мост / Bron / Broen (2011-2015) BDRip [H.264 / 720p] (1-3 сезон, серии 1-30 из 30) Novamedia


    • Комментарии (0):

      Информация

      Информация

        Посетители, находящиеся в группе Гости, не могут оставлять комментарии в данной новости.

        ↓ Меню




        ↓ Опрос

        Вы добавили сайт в закладки?
        Да
        Нет


        Top 10 за месяц (Фильмы)