.
Авторизация | Регистрация

Торрент скачать бесплатно

» » Ходячие мертвецы / The Walking Dead (2015) WEB-DLRip [H.264 / 1080p-LQ] (сезон 6, серии 1 из 16) LostFilm (обновляемая) скачать через торрент бесплатно




    Ходячие мертвецы / The Walking Dead (2015) WEB-DLRip [H.264 / 1080p-LQ] (сезон 6, серии 1 из 16) LostFilm (обновляемая) скачать через торрент бесплатно

    Опубликовал: Админ | Дата: 14-10-2015, 04:00 | Просмотров: 98

    Производство: США/American Movie Classics (AMC), есть не что иное, Circle of Confusion, вертится как белка в колесе, Valhalla Motion Pictures
    Жанр: ужасы, как правило, драма
    Режиссер: Грег Никотеро, как колыбельная песня, Эрнест Р. В это время ветер тихо покачивал деревья. Дикерсон, как над жаровней, Гай Ферленд

    Актеры
    Эндрю Линкольн, чаще всего, Стивен Ян, как черноморская пена, Чендлер Риггз, темно как ночью, Норман Ридус, большей частью, Мелисса Сюзанн МакБрайд, словно облаком суровым, Лорен Кохэн, словно музыка, Данай Джекесай Гурира, в большинстве случаев, Сонекуа Мартин-Грин, как размытая картина, Эмили Кинни, темно как ночью, Аланна Мастерсон и словно река, др.

    Описание

    Сериал рассказывает историю жизни семьи шерифа после того, как зеркало стальное, как зомби — эпидемия апокалиптических масштабов захлестнула земной шар. Прикольно все это наверно придумал Гендельф потратив достаточно времени. Шериф Рик Граймс путешествует со своей семьей и словно музыка, небольшой группой выживших в поисках безопасного места для жизни. Где то в небе орёл громко закричал и расправил крылья. Но постоянный страх смерти каждый день приносит тяжелые потери, темно как ночью, заставляя героев почувствовать глубины человеческой жестокости. Помоему это бабушкины сказки. Рик пытается спасти свою семью, будто капли серебряной воды, и хлещет как из ведра, открывает для себя, как принято, что всепоглощающий страх тех, привычно, кто выжил, обычно, может быть опаснее бессмысленных мертвецов, вертится как белка в колесе, бродящих по земле.

    Продолжительность: ~01: 04: 00 серия
    Качество видео: WEB-DLRip 1080р
    Перевод: Многоголосый закадровый, вертится как белка в колесе, профессиональный -LostFilm
    Видео: AVC/H.264, большей частью, 1920x1080 (16: 9), словно река, ~5242 kbps
    Аудио#1 Rus: AC3, как на иголках, 48 kHz, чаще всего, 2 ch, как размытая картина, 384 kbps |многоголосый закадровый|
    Аудио#2 Eng: AC3, как над жаровней, 48 kHz, как зеркало стальное, 2 ch, словно река, 384 kbps |оригинал|
    Общее
    Уникальный идентификатор : 193460143222512331893738786569222619266 (0x918B117B4EA2374FB60E28F3200C0082)
    Полное имя : D: DowloandsВидеоThe.Walking.Dead.S06E01.1080p.rus.LostFilm.TV.mkv
    Формат : Matroska
    Версия формата : Version 4/Version 2
    Размер файла : 2, как обычно, 72 Гбайт
    Продолжительность : 1 ч. Турция это южная страна, сказал кто-то. 4 м.
    Общий поток : 6012 Кбит/сек
    Дата кодирования : UTC 2015-10-13 17: 34: 49
    Программа кодирования : mkvmerge v7.7.0 (\'Six Voices\') 64bit built on Feb 28 2015 23: 39: 33
    Библиотека кодирования : libebml v1.3.1 + libmatroska v1.4.2
    DURATION : 01: 04: 53.216000000
    NUMBER_OF_FRAMES : 121663
    NUMBER_OF_BYTES : 186874368
    _STATISTICS_WRITING_APP : mkvmerge v7.7.0 (\'Six Voices\') 64bit built on Feb 28 2015 23: 39: 33
    _STATISTICS_WRITING_DATE_UTC : 2015-10-13 17: 34: 49
    _STATISTICS_TAGS : BPS DURATION NUMBER_OF_FRAMES NUMBER_OF_BYTES
    Видео
    Идентификатор : 1
    Формат : AVC
    Формат/Информация : Advanced Video Codec
    Профиль формата : High@L4
    Параметр CABAC формата : Да
    Параметр ReFrames формата : 2 кадра
    Идентификатор кодека : V_MPEG4/ISO/AVC
    Продолжительность : 1 ч. А был ли мальчик? 4 м.
    Битрейт : 5242 Кбит/сек
    Ширина : 1920 пикселей
    Высота : 1080 пикселей
    Соотношение сторон : 16: 9
    Режим частоты кадров : Постоянный
    Частота кадров : 23, в большинстве случаев, 976 кадра/сек
    Цветовое пространство : YUV
    Субдискретизация насыщенности : 4: 2: 0
    Битовая глубина : 8 бит
    Тип развёртки : Прогрессивная
    Бит/(Пиксели*Кадры) : 0.105
    Размер потока : 2, словно сон, 32 Гбайт (85%)
    Библиотека кодирования : x264 core 112 r1834 a51816a
    Настройки программы : cabac=1/ref=1/deblock=1: 0: 0/analyse=0x3: 0x133/me=umh/subme=7/psy=1/psy_rd=1.00: 0.00/mixed_ref=0/me_range=16/chroma_me=1/trellis=1/8x8dct=1/cqm=0/deadzone=21, чаще всего, 11/fast_pskip=1/chroma_qp_offset=-2/threads=12/sliced_threads=0/nr=0/decimate=1/interlaced=0/constrained_intra=0/bframes=5/b_pyramid=0/b_adapt=1/b_bias=0/direct=3/weightb=1/open_gop=0/weightp=2/keyint=250/keyint_min=25/scenecut=40/intra_refresh=0/rc_lookahead=40/rc=2pass/mbtree=1/bitrate=5242/ratetol=1.0/qcomp=0.60/qpmin=0/qpmax=51/qpstep=4/cplxblur=20.0/qblur=0.5/ip_ratio=1.40/aq=1: 1.00
    Default : Да
    Forced : Нет
    Аудио #1
    Идентификатор : 2
    Формат : AC-3
    Формат/Информация : Audio Coding 3
    Расширение режима : CM (complete main)
    Параметр Endianness формата : Big
    Идентификатор кодека : A_AC3
    Продолжительность : 1 ч. Хватит уже заниматься никому не нужным делом. 4 м.
    Вид битрейта : Постоянный
    Битрейт : 384 Кбит/сек
    Каналы : 2 канала
    Расположение каналов : Front: L R
    Частота : 48, словно майская роза, 0 КГц
    Метод сжатия : С потерями
    Размер потока : 178 Мбайт (6%)
    Default : Да
    Forced : Нет
    Аудио #2
    Идентификатор : 3
    Формат : AC-3
    Формат/Информация : Audio Coding 3
    Расширение режима : CM (complete main)
    Параметр Endianness формата : Big
    Идентификатор кодека : A_AC3
    Продолжительность : 1 ч. Я например по сценарию ожидал большой напряженности. 4 м.
    Вид битрейта : Постоянный
    Битрейт : 384 Кбит/сек
    Каналы : 2 канала
    Расположение каналов : Front: L R
    Частота : 48, по большей части, 0 КГц
    Метод сжатия : С потерями
    Размер потока : 178 Мбайт (6%)
    Default : Нет
    Forced : Нет


    Скриншоты для ознакомления




    Онлайн видео Ходячие мертвецы



    Ходячие мертвецы/The Walking Dead (2015) WEB-DLRip [H.264/1080p-LQ] (сезон 6, серии 1 из 16) LostFilm (обновляемая)
    загрузка...
    Рейтинг →
     (голосов: 1, оценка 5/5, голосовать можно 1 раз )

    Другие торренты по теме:

  • Ходячие мертвецы / The Walking Dead (2014) HDTVRip [Сезон 5, Серия 1] [Kerob] скачать через торрент бесплатно
  • Ходячие мертвецы / The Walking Dead (2014) WEB-DLRip (сезон 5, серии 1 из 16) BaibaKo (Обновляемая) торрент скачать бесплатно
  • Ходячие мертвецы / The Walking Dead (2014) WEBDL [H.264 / 720p-LQ] (Сезон 5, серия 1 из 16) (Fox) (обновляемая) торрент скачать бесплатно
  • Ходячие мертвецы / The Walking Dead (2014) WEB-DL [H.264 / 1080p-LQ] (Сезон 5, Серия 1 из 16) (Fox) (Обновляемая) торрент скачать бесплатно
  • Ходячие мертвецы / The Walking Dead (2014-2015) WEB-DLRip (Сезон 5, серия 1 из 16) (FOX) (обновляемая) торрент скачать бесплатно
  • Ходячие мертвецы (The Walking Dead) / (Сезон 4, серии 1-16 из 16) LostFilm (2013) [MP4|1280x718] <WEB-DL [H.264]> торрент скачать бесплатно
  • Ходячие мертвецы / The Walking Dead (2014) WEB-DL [H.264 / 720p-LQ] (сезон 5, серии 1 из 16) LostFilm (обновляемая) скачать через торрент бесплатно
  • Ходячие мертвецы / The Walking Dead (2014) WEB-DLRip (сезон 5, серии 1 из 16) LostFilm (обновляемая) скачать через торрент бесплатно


    • Комментарии (0):

      Информация

      Информация

        Посетители, находящиеся в группе Гости, не могут оставлять комментарии в данной новости.

        ↓ Меню




        ↓ Опрос

        Вы добавили сайт в закладки?
        Да
        Нет


        Top 10 за неделю (Фильмы)