.
Авторизация | Регистрация
Хочешь лучшие торренты? Добавь свой email!
Добавить

Торрент скачать бесплатно

» » Фарго / Fargo (2015) WEB-DL [H.264 / 1080p-LQ] (сезон 2, серии 1 из 10) NewStudio (обновляемая) скачать через торрент бесплатно




    Фарго / Fargo (2015) WEB-DL [H.264 / 1080p-LQ] (сезон 2, серии 1 из 10) NewStudio (обновляемая) скачать через торрент бесплатно

    Опубликовал: Админ | Дата: 14-10-2015, 04:00 | Просмотров: 86

    Производство: США/FX Productions, едва заметно, MGM Television
    Жанр: триллер, темно как ночью, драма, словно река, криминал
    Режиссер: Мэтт Шекман, как правило, Скотт Уинант, большей частью, Адам Бернштейн

    Актеры
    Патрик Уилсон, хлещет как из ведра, Кирстен Данст, как размытая картина, Джесси Племонс, в большинстве случаев, Тед Дэнсон, словно музыка, Джин Смарт, как черноморская пена, Энгус Сэмпсон, словно птица, Адам Аркин, чаще всего, Брэд Манн, словно сон, Зан МакКларнон, как принято, Эмили Хейн, есть не что иное, Кейр О\'Доннелл, словно майская роза, Жюль Хобсон, как зеркало стальное, Анна Каммер, привычно, Дэн Бирн, как на иголках, Тодд Манн, обычно, Райан О\'Нан, обычно, Джесси Коллин, словно облаком суровым, Дэйв Бурчилл и чаще всего, др.

    Описание

    История второго сезон любимого сериалаа сосредоточится вокруг события, будто капли серебряной воды, произошедшего зимой 1979 года в Су-Фолс, большей частью, штат Южная Дакота, как черноморская пена, о котором часто упоминали на протяжении первого сезон любимого сериалаа, хлещет как из ведра, а главными героями станут молодые Лу Солверсон и как обычно, его жена, как обычно, мать Молли.

    Продолжительность: ~ 00: 50: 00 серия
    Качество видео: WEB-DL 1080p
    Перевод: Многоголосый закадровый, по большей части, профессиональный (NewStudio )
    Автор перевода: Александра Цернант
    Видео: AVC/H.264, как колыбельная песня, 1916x1076 (16: 9), словно птица, ~ 4850 Кбит/сек
    Аудио 1 Rus: AC-3, словно облаком суровым, 6 каналов, как размытая картина, 384 Кбит/сек - многоголосый закадровый
    Аудио 2 Eng: AC-3, словно майская роза, 6 каналов, словно облаком суровым, 384 Кбит/сек - оригинал
    Код:
    Общее
    Уникальный идентификатор : 234525958293283664597951981440794779508 (0xB0700E7C1CF033DC85D3A366698A5F74)
    Полное имя : Fargo.s02e01.WEBDL.1080p.NewStudio.TV.mkv
    Формат : Matroska
    Версия формата : Version 4/Version 2
    Размер файла : 2, как колыбельная песня, 00 Гбайт
    Продолжительность : 49 м.
    Общий поток : 5732 Кбит/сек
    Дата кодирования : UTC 2015-10-13 19:00:28
    Программа кодирования : mkvmerge v8.2.0 (\'World of Adventure\') 32bit
    Библиотека кодирования : libebml v1.3.1 + libmatroska v1.4.2
    DURATION : 00:49:53.920000000
    NUMBER_OF_FRAMES : 93560
    NUMBER_OF_BYTES : 143708160
    _STATISTICS_WRITING_APP : mkvmerge v8.2.0 (\'World of Adventure\') 32bit
    _STATISTICS_WRITING_DATE_UTC : 2015-10-13 19:00:28
    _STATISTICS_TAGS : BPS DURATION NUMBER_OF_FRAMES NUMBER_OF_BYTES
    Видео
    Идентификатор : 1
    Формат : AVC
    Формат/Информация : Advanced Video Codec
    Профиль формата : High@L4
    Параметр CABAC формата : Да
    Параметр ReFrames формата : 4 кадра
    Идентификатор кодека : V_MPEG4/ISO/AVC
    Продолжительность : 49 м.
    Битрейт : 4850 Кбит/сек
    Ширина : 1916 пикселей
    Высота : 1076 пикселей
    Соотношение сторон : 16:9
    Режим частоты кадров : Постоянный
    Частота кадров : 23, словно музыка, 976 кадра/сек
    Цветовое пространство : YUV
    Субдискретизация насыщенности : 4:2:0
    Битовая глубина : 8 бит
    Тип развёртки : Прогрессивная
    Бит/(Пиксели*Кадры) : 0.098
    Размер потока : 1, вертится как белка в колесе, 69 Гбайт (85%)
    Язык : English
    Default : Да
    Forced : Нет
    Цветовой диапазон : Limited
    Основные цвета : BT.709
    Характеристики трансфера : BT.709
    Коэффициенты матрицы : BT.709
    Аудио #1
    Идентификатор : 2
    Формат : AC-3
    Формат/Информация : Audio Coding 3
    Расширение режима : CM (complete main)
    Параметр Endianness формата : Big
    Идентификатор кодека : A_AC3
    Продолжительность : 49 м.
    Вид битрейта : Постоянный
    Битрейт : 384 Кбит/сек
    Каналы : 6 каналов
    Расположение каналов : Front: L C R, едва заметно, Side: L R, как над жаровней, LFE
    Частота : 48, словно сон, 0 КГц
    Метод сжатия : С потерями
    Задержка видео : 16 мс.
    Размер потока : 137 Мбайт (7%)
    Заголовок : NewStudio.TV
    Язык : Russian
    Default : Да
    Forced : Нет
    Аудио #2
    Идентификатор : 3
    Формат : AC-3
    Формат/Информация : Audio Coding 3
    Расширение режима : CM (complete main)
    Параметр Endianness формата : Big
    Идентификатор кодека : A_AC3
    Продолжительность : 49 м.
    Вид битрейта : Постоянный
    Битрейт : 384 Кбит/сек
    Каналы : 6 каналов
    Расположение каналов : Front: L C R, словно сон, Side: L R, привычно, LFE
    Частота : 48, темно как ночью, 0 КГц
    Метод сжатия : С потерями
    Задержка видео : 16 мс.
    Размер потока : 137 Мбайт (7%)
    Язык : English
    Default : Нет
    Forced : Нет


    Скриншоты для ознакомления




    Онлайн видео Фарго



    Фарго/Fargo (2015) WEB-DL [H.264/1080p-LQ] (сезон 2, серии 1 из 10) NewStudio (обновляемая)
    загрузка...
    Рейтинг →
     (голосов: 1, оценка 4/5, голосовать можно 1 раз )

    Другие торренты по теме:

  • Фарго / Fargo (2015) WEB-DLRip (сезон 2, серии 1 из 10) NewStudio (обновляемая) скачать через торрент бесплатно
  • Фарго / Fargo (2015) WEB-DLRip (сезон 2, серии 1 из 10) LostFilm (обновляемая) скачать через торрент бесплатно
  • Фарго / Fargo (2015) WEB-DL [H.264 / 720p-LQ] (сезон 2, серия 1 из 10) (NewStudio) (обновляемая) скачать через торрент бесплатно
  • Фарго / Fargo (2015) WEB-DL [H.264 / 720p-LQ] (сезон 2, серия 1 из 10) (LostFilm) (обновляемая) скачать через торрент бесплатно
  • Фарго / Fargo (2015) WEB-DL [H.264 / 720p-LQ] (сезон 2, серии 1 из 10) Первый канал (обновляемая) скачать через торрент бесплатно
  • Фарго / Fargo (2015) WEB-DLRip [H.264 / 720p-LQ] (cезон 2, серии 1- из 10) (LostFilm, Кубик в Кубе, Первый канал) (обновляемая) скачать через торрент бесплатно
  • Фарго / Fargo (2015) WEB-DLRip [H.264 / 1080p-LQ] (cезон 2, серии 1-3 из 10) (LostFilm, Кубик в Кубе, Первый канал) (обновляемая) скачать через торрент бесплатно
  • Фарго / Fargo (2015) WEB-DLRip (сезон 2, серии 1-3 из 10) (LostFilm, Кубик в Кубе, Первый канал) (обновляемая) скачать через торрент бесплатно


    • Комментарии (0):

      Информация

      Информация

        Посетители, находящиеся в группе Гости, не могут оставлять комментарии в данной новости.

        ↓ Меню




        ↓ Опрос

        Вы добавили сайт в закладки?
        Да
        Нет


        Top 10 за месяц (Фильмы)