.
Авторизация | Регистрация
Хочешь лучшие торренты? Добавь свой email!
Добавить

Торрент скачать бесплатно

» » Универ. Новая общага (2015) WEB-DLRip [H.264 / 720p-LQ] (сезон 9, серии 1-3 из 20) (обновляемая) скачать через торрент бесплатно




    Универ. Новая общага (2015) WEB-DLRip [H.264 / 720p-LQ] (сезон 9, серии 1-3 из 20) (обновляемая) скачать через торрент бесплатно

    Опубликовал: Админ | Дата: 14-10-2015, 04:00 | Просмотров: 94

    Производство: Россия/Комеди Клаб Продакшн, Телеканал ТНТ
    Жанр: комедия
    Режиссер: Константин Смирнов, Максим Зыков

    Актеры
    Арарат Кещян, Станислав Ярушин, Анна Кузина, Настасья Самбурская, Анна Хилькевич, Владимир Фекленко, Елена Валюшкина, Андрей Лебедев, Сергей Пиоро, Роман Куперман, Дмитрий Калистратов, Алексей Шаранин, Дарья Щёголева, Наталья Рудова, Иван Руденко, Анатолий Носов, Дмитрий Кузин, Мария Беляева, Александра Булычева, Галина Глушкова, Александр Стекольников, Анастасия Иванова (II), Сергей Рост

    Описание

    Главный экзамен нового сезон любимого сериалаа Универа предстоит сдать вечному студенту Антону Мартынову. Ему придется сделать выбор между двумя вершинами своего любовного треугольника. Кристина Соколовская или Юля Семакина? Дело осложнится еще и тем, что Кристина будет откровенно динамить Антона, а Юля, наоборот, объявит о своей беременности. В результате решать за Антона, будет папа – олигарх Лев Андреевич. А у этого брутального мужчины разговор короткий: залетел – женись.

    Продолжительность: ~ 00: 25: 00 серия
    Качество видео: WEB-DLRip
    Видео: AVC/H.264, 1280x720 (16: 9), ~3100 Kbps
    Аудио: AC3, 2 ch, 192 Kbps
    Код:
    Общее
    Уникальный идентификатор : 181053902189255195429279347164694322060 (0x8835B692CC081228B27C5DF666121B8C)
    Полное имя : F:DOWNLOADSУнивер. В ногах правды нет, сказал кто то из толпы, к чему не понятно. Новая общага (9 сезон любимого сериала) 2015 WEB-DLRip 720Универ. Новая общага 9 - 01 серия.mkv
    Формат : Matroska
    Версия формата : Version 2
    Размер файла : 587 Мбайт
    Продолжительность : 24 м.
    Общий поток : 3404 Кбит/сек
    Дата кодирования : UTC 2015-10-12 18:07:12
    Программа кодирования : mkvmerge v7.8.0 (\'River Man\') 32bit built on Apr 3 2015 12:11:22
    Библиотека кодирования : libebml v1.3.1 + libmatroska v1.4.2
    Видео
    Идентификатор : 1
    Формат : AVC
    Формат/Информация : Advanced Video Codec
    Профиль формата : High@L4
    Параметр CABAC формата : Да
    Параметр ReFrames формата : 8 кадров
    Идентификатор кодека : V_MPEG4/ISO/AVC
    Продолжительность : 24 м.
    Битрейт : 3145 Кбит/сек
    Ширина : 1280 пикселей
    Высота : 720 пикселей
    Соотношение сторон : 16:9
    Режим частоты кадров : Постоянный
    Частота кадров : 25, 000 кадров/сек
    Цветовое пространство : YUV
    Субдискретизация насыщенности : 4:2:0
    Битовая глубина : 8 бит
    Тип развёртки : Прогрессивная
    Бит/(Пиксели*Кадры) : 0.136
    Размер потока : 542 Мбайт (92%)
    Библиотека кодирования : x264 core 142 r2455 021c0dc
    Настройки программы : cabac=1/ref=8/deblock=1:-1:-1/analyse=0x3:0x133/me=umh/subme=9/psy=1/psy_rd=1.00:0.15/mixed_ref=1/me_range=16/chroma_me=1/trellis=2/8x8dct=1/cqm=0/deadzone=21, 11/fast_pskip=1/chroma_qp_offset=-3/threads=24/lookahead_threads=2/sliced_threads=0/nr=0/decimate=1/interlaced=0/bluray_compat=0/constrained_intra=0/bframes=3/b_pyramid=2/b_adapt=2/b_bias=0/direct=3/weightb=1/open_gop=0/weightp=2/keyint=250/keyint_min=25/scenecut=40/intra_refresh=0/rc_lookahead=60/rc=crf/mbtree=1/crf=17.0/qcomp=0.60/qpmin=0/qpmax=69/qpstep=4/vbv_maxrate=3600/vbv_bufsize=3600/crf_max=0.0/nal_hrd=none/filler=0/ip_ratio=1.40/aq=1:1.00
    Default : Да
    Forced : Нет
    Аудио
    Идентификатор : 2
    Формат : AC-3
    Формат/Информация : Audio Coding 3
    Расширение режима : CM (complete main)
    Параметр Endianness формата : Big
    Идентификатор кодека : A_AC3
    Продолжительность : 24 м.
    Вид битрейта : Постоянный
    Битрейт : 192 Кбит/сек
    Каналы : 2 канала
    Расположение каналов : Front: L R
    Частота : 48, 0 КГц
    Метод сжатия : С потерями
    Размер потока : 33, 1 Мбайт (6%)
    Default : Да
    Forced : Нет


    Скриншоты для ознакомления




    Онлайн видео Универ. Новая общага (2015) WEB-DLRip [H.264



    Универ. Новая общага (2015) WEB-DLRip [H.264/720p-LQ] (сезон 9, серии 1-3 из 20) (обновляемая)
    загрузка...
    Рейтинг →
     (голосов: 1, оценка 5/5, голосовать можно 1 раз )

    Другие торренты по теме:

  • Универ. Новая общага (2011-2015) SATRip (сезон 1-10, серии 1-199 из 199 + Универ. День открытых дверей + Новогодняя серия 2014) скачать через торрент бесплатно
  • Универ. Новая общага (2011-2016) SATRip (сезон 1-11, серии 1-219 из 219 + Новогодняя серия (2014) + Универ. День открытых дверей)
  • Универ. Новая общага (2011-2017) SATRip / WEB-DLRip (сезон 1-12, серии 1-240 из 240 + Новогодняя серия (2014, 2016) + Универ. День открытых дверей)
  • Универ. Новая общага (2014) WEB-DLRip [H.264] (Сезон 7, серии 121-136) (обновляемая)
  • Универ. Новая общага (2014) WEB-DL [720p] (Сезон 7, серии 121-136) (обновляемая)
  • Универ. Новая общага (2014) WEB-DLRip [H.264 / 720p-LQ] (сезон 7, серии 1-16 из (121-136 из )) (обновляемая)
  • Универ. Новая общага (2015) WEB-DLRip [H.264] (сезон 8, серии 1- из 20) (обновляемая) скачать через торрент бесплатно
  • Универ. Новая общага (2015) WEB-DLRip (сезон 8, серии 1- из 20) (обновляемая) скачать через торрент бесплатно


    • Комментарии (0):

      Информация

      Информация

        Посетители, находящиеся в группе Гости, не могут оставлять комментарии в данной новости.

        ↓ Меню




        ↓ Опрос

        Вы добавили сайт в закладки?
        Да
        Нет


        Top 10 за месяц (Фильмы)