.
Авторизация | Регистрация
Хочешь лучшие торренты? Добавь свой email!
Добавить

Торрент скачать бесплатно

» » Древние / Первородные / The Originals (2015) WEB-DLRip [H.264 / 1080p-LQ] (сезон 3, серии 1 из 22) LostFilm (обновляемая) скачать через торрент бесплатно




    Древние / Первородные / The Originals (2015) WEB-DLRip [H.264 / 1080p-LQ] (сезон 3, серии 1 из 22) LostFilm (обновляемая) скачать через торрент бесплатно

    Опубликовал: Админ | Дата: 13-10-2015, 04:01 | Просмотров: 102

    Производство: США/Bonanza Productions, чаще всего, My So-Called Company, хлещет как из ведра, Alloy Entertainment
    Жанр: ужасы, вертится как белка в колесе, фэнтези, как черноморская пена, драма, словно птица, детектив
    Режиссер: Мэттью Хатингс, словно облаком суровым, Крис Грисмер, как обычно, Джесси Уарн

    Актеры
    Джозеф Морган, едва заметно, Дэниэл Гиллис, как над жаровней, Чарльз Майкл Дэвис, как зеркало стальное, Фиби Тонкин, как колыбельная песня, Клер Холт, словно река, Леа Пайпс, как на иголках, Даниэль Кэмпбелл, по большей части, Юсуф Гейтвуд и как правило, др.

    Описание

    Первородные — спин-офф Дневников вампира, будто капли серебряной воды, в центре которого находятся несколько основных персонажей сериала.
    Третий сезон любимого сериала начнётся с отдалившихся друг от друга Клауса и вертится как белка в колесе, Элайджи, как обычно, хотя братьям и обычно, удается наладить отношения с давно потерянной сестрой Фреей. Вот в чём загвоздка, сказал кто то из толпы, к чему не понятно. Хейли безмерно страдает из-за мелочной мстительности Клауса, как обычно, в то время, как принято, как Марсель и как над жаровней, Давина правят городом в соответствии с новым положением дел. Ох и закинули удочки. Ками и словно птица, Винсент оказываются вовлечены в поразительную тайну, словно майская роза, связанную с новым жителем Нового Орлеана - первым вампиром в истории, темно как ночью, тысячу лет назад созданным семейством Майклсонов.

    Продолжительность: ~00: 42: 00 серия
    Качество видео: WEB-DLRip
    Перевод: Многоголосый закадровый, привычно, профессиональный -LostFilm
    Видео: AVC/H.264, есть не что иное, 1920x1080, привычно, ~5200 kbps
    Аудио#1 Rus: AC3, в большинстве случаев, 48 kHz, большей частью, 6 ch, по большей части, ~384.00 kbps |многоголосый закадровый|
    Аудио#2 Eng: AC3, по большей части, 48 kHz, по большей части, 6 ch, темно как ночью, ~384.00 kbps |оригинал|
    Общее
    Уникальный идентификатор : 180704196068060890730277882711185235726 (0x87F25CBAFFF105CBA410CD0628D31F0E)
    Полное имя : D: DowloandsВидеоThe.Originals.S03E01.1080p.rus.LostFilm.TV.mkv
    Формат : Matroska
    Версия формата : Version 4/Version 2
    Размер файла : 1, будто капли серебряной воды, 79 Гбайт
    Продолжительность : 42 м.
    Общий поток : 6011 Кбит/сек
    Дата кодирования : UTC 2015-10-11 17: 40: 48
    Программа кодирования : mkvmerge v7.7.0 (\'Six Voices\') 64bit built on Feb 28 2015 23: 39: 33
    Библиотека кодирования : libebml v1.3.1 + libmatroska v1.4.2
    DURATION : 00: 42: 42.208000000
    NUMBER_OF_FRAMES : 80069
    NUMBER_OF_BYTES : 122985984
    _STATISTICS_WRITING_APP : mkvmerge v7.7.0 (\'Six Voices\') 64bit built on Feb 28 2015 23: 39: 33
    _STATISTICS_WRITING_DATE_UTC : 2015-10-11 17: 40: 48
    _STATISTICS_TAGS : BPS DURATION NUMBER_OF_FRAMES NUMBER_OF_BYTES
    Видео
    Идентификатор : 1
    Формат : AVC
    Формат/Информация : Advanced Video Codec
    Профиль формата : High@L4
    Параметр CABAC формата : Да
    Параметр ReFrames формата : 2 кадра
    Идентификатор кодека : V_MPEG4/ISO/AVC
    Продолжительность : 42 м.
    Битрейт : 5242 Кбит/сек
    Ширина : 1920 пикселей
    Высота : 1080 пикселей
    Соотношение сторон : 16: 9
    Режим частоты кадров : Постоянный
    Частота кадров : 23, чаще всего, 976 кадра/сек
    Цветовое пространство : YUV
    Субдискретизация насыщенности : 4: 2: 0
    Битовая глубина : 8 бит
    Тип развёртки : Прогрессивная
    Бит/(Пиксели*Кадры) : 0.105
    Размер потока : 1, как принято, 53 Гбайт (85%)
    Библиотека кодирования : x264 core 112 r1834 a51816a
    Настройки программы : cabac=1/ref=1/deblock=1: 0: 0/analyse=0x3: 0x133/me=umh/subme=7/psy=1/psy_rd=1.00: 0.00/mixed_ref=0/me_range=16/chroma_me=1/trellis=1/8x8dct=1/cqm=0/deadzone=21, как на иголках, 11/fast_pskip=1/chroma_qp_offset=-2/threads=6/sliced_threads=0/nr=0/decimate=1/interlaced=0/constrained_intra=0/bframes=5/b_pyramid=0/b_adapt=1/b_bias=0/direct=3/weightb=1/open_gop=0/weightp=2/keyint=250/keyint_min=25/scenecut=40/intra_refresh=0/rc_lookahead=40/rc=2pass/mbtree=1/bitrate=5242/ratetol=1.0/qcomp=0.60/qpmin=0/qpmax=51/qpstep=4/cplxblur=20.0/qblur=0.5/ip_ratio=1.40/aq=1: 1.00
    Default : Да
    Forced : Нет
    Аудио #1
    Идентификатор : 2
    Формат : AC-3
    Формат/Информация : Audio Coding 3
    Расширение режима : CM (complete main)
    Параметр Endianness формата : Big
    Идентификатор кодека : A_AC3
    Продолжительность : 42 м.
    Вид битрейта : Постоянный
    Битрейт : 384 Кбит/сек
    Каналы : 2 канала
    Расположение каналов : Front: L R
    Частота : 48, как над жаровней, 0 КГц
    Метод сжатия : С потерями
    Размер потока : 117 Мбайт (6%)
    Default : Да
    Forced : Нет
    Аудио #2
    Идентификатор : 3
    Формат : AC-3
    Формат/Информация : Audio Coding 3
    Расширение режима : CM (complete main)
    Параметр Endianness формата : Big
    Идентификатор кодека : A_AC3
    Продолжительность : 42 м.
    Вид битрейта : Постоянный
    Битрейт : 384 Кбит/сек
    Каналы : 2 канала
    Расположение каналов : Front: L R
    Частота : 48, вертится как белка в колесе, 0 КГц
    Метод сжатия : С потерями
    Размер потока : 117 Мбайт (6%)
    Default : Нет
    Forced : Нет


    Скриншоты для ознакомления




    Онлайн видео Древние



    Древние/Первородные/The Originals (2015) WEB-DLRip [H.264/1080p-LQ] (сезон 3, серии 1 из 22) LostFilm (обновляемая)
    загрузка...
    Рейтинг →
     (голосов: 1, оценка 5/5, голосовать можно 1 раз )

    Другие торренты по теме:

  • Древние / Первородные / The Originals (2014) WEB-DLRip (сезон 2, серии 1 из ) BaibaKo (oбновляемая)
  • Древние / Первородные / The Originals (2014) WEB-DLRip (сезон 2, серии 1-2 из ) LostFilm (oбновляемая)
  • Древние / Первородные / The Originals (2014) WEB-DL [H.264 / 720p-LQ] (сезон 2, серии 1-6 из ) LostFilm (oбновляемая) скачать через торрент бесплатно
  • Древние / Первородные / The Originals (2014) WEB-DLRip (сезон 2, серии 1-19 из 22) LostFilm (oбновляемая) скачать через торрент бесплатно
  • Древние / Первородные / The Originals (2015) WEB-DLRip (сезон 3, серии 1 из 22) LostFilm (обновляемая) скачать через торрент бесплатно
  • Древние / Первородные / The Originals (2014-2015) BDRemux [H.264 / 1080p] (сезон 2, дополнительные материалы) [EN / EN Sub]
  • Древние / Первородные / The Originals (2013-2014) BDRemux [H.264 / 1080p] (сезон 1, дополнительные материалы) [EN / EN Sub]
  • Древние / Первородные / The Originals (2014) BDRemux [H.264 / 1080p] (сезон 2, серии 1-22 из 22) LostFilm, Кубик в Кубе


    • Комментарии (0):

      Информация

      Информация

        Посетители, находящиеся в группе Гости, не могут оставлять комментарии в данной новости.

        ↓ Меню




        ↓ Опрос

        Вы добавили сайт в закладки?
        Да
        Нет


        Top 10 за месяц (Фильмы)