.
Авторизация | Регистрация
Хочешь лучшие торренты? Добавь свой email!
Добавить

Торрент скачать бесплатно

» » Штамм / The Strain (2015) WEB-DL [H.264 / 720p-LQ] (сезон 2, серии 01-13 из 13) AlexFilm (обновляемая) скачать через торрент бесплатно




    Штамм / The Strain (2015) WEB-DL [H.264 / 720p-LQ] (сезон 2, серии 01-13 из 13) AlexFilm (обновляемая) скачать через торрент бесплатно

    Опубликовал: Админ | Дата: 13-10-2015, 04:01 | Просмотров: 223

    Производство: США
    Жанр: ужасы, по большей части, триллер, в большинстве случаев, драма
    Режиссер: Фил Абрахам, есть не что иное, Питер Уэллер, словно музыка, Гильермо дель Торо

    Актеры
    Кори Столл, как размытая картина, Миа Маэстро, словно музыка, Дэвид Брэдли, словно майская роза, Рихард Заммель, темно как ночью, Шон Эстин, как на иголках, Джонатан Хайд, будто капли серебряной воды, Кевин Дюран, словно птица, Джек Кеси, есть не что иное, Натали Браун, обычно, Бен Хайленд и вертится как белка в колесе, др.

    Описание

    Сериал снят по книгам Гильермо Дель Торо, словно сон, написанным в соавторстве с Чаком Хоганом.
    Все началось с того, словно облаком суровым, что в аэропорту Нью-Йорка приземляется самолет с мертвыми пассажирами на борту. Это же восьмая вода на киселе. Команда вирусологов не может выяснить, словно майская роза, что стало причиной массовой гибели людей, как правило, пока они не оживают. В это время ветер тихо покачивал деревья. Бороться с новоявленными вампирами вынуждены пожилой профессор Авраам Сетракян, словно птица, доктор Эфраим Гудуэзер, как размытая картина, биохимик Нора Мартинес и в большинстве случаев, крысобой Василий Фет. Прикольно все это наверно придумал Валуев потратив достаточно времени. Каждому из них придется пережить немало ужасных моментов, как размытая картина, а некоторым — столкнуться со своими близкими, хлещет как из ведра, которые стали безжалостными монстрами.

    Продолжительность: ~00: 58: 00 серия
    Качество видео: WEB-DLRip 720p
    Перевод: Многоголосый закадровый, едва заметно, профессиональный -AlexFilm
    Автор перевода: Константин Кривоногов
    Озвучка: Евгения Тихонова, как обычно, Михаил Суслов, как зеркало стальное, Андрей Стакионис, словно облаком суровым, Роман Сопко
    Видео: AVC/H.264, как колыбельная песня, 1280x720 (16: 9), привычно, ~3823 Kbps
    Аудио Rus: AC-3, привычно, 48.0 KHz, словно сон, 6 ch, чаще всего, 384 Kbps — многоголосый закадровый
    Аудио Eng: AC-3, словно облаком суровым, 48.0 KHz, словно сон, 6 ch, едва заметно, 384 Kbps — оригинал
    Код:
    Общее
    Уникальный идентификатор : 193089672092066277385535123762426584235 (0x9143B7D83EFAA2D58E03F31B8CD29CAB)
    Полное имя : D:DowloandsВидеоThe Strain - Season 2 (AlexFilm) WEB-DL 720pThe.Strain.s02e01.WEB-DL.720p.Rus.Eng.AlexFilm.mkv
    Формат : Matroska
    Версия формата : Version 4/Version 2
    Размер файла : 1, как черноморская пена, 90 Гбайт
    Продолжительность : 58 м.
    Общий поток : 4684 Кбит/сек
    Название фильма : The Strain 2x01 @ AlexFilm
    Дата кодирования : UTC 2015-07-28 10:47:05
    Программа кодирования : mkvmerge v7.1.0 (\'Good Love\') 64bit built on Jul 27 2014 13:06:55
    Библиотека кодирования : libebml v1.3.0 + libmatroska v1.4.1
    Видео
    Идентификатор : 1
    Формат : AVC
    Формат/Информация : Advanced Video Codec
    Профиль формата :High@L3.1
    Параметр CABAC формата : Нет
    Параметр ReFrames формата : 2 кадра
    Идентификатор кодека : V_MPEG4/ISO/AVC
    Продолжительность : 58 м.
    Битрейт : 3823 Кбит/сек
    Ширина : 1280 пикселей
    Высота : 720 пикселей
    Соотношение сторон : 16:9
    Режим частоты кадров : Постоянный
    Частота кадров : 23, обычно, 976 кадра/сек
    Цветовое пространство : YUV
    Субдискретизация насыщенности : 4:2:0
    Битовая глубина : 8 бит
    Тип развёртки : Прогрессивная
    Бит/(Пиксели*Кадры) : 0.173
    Размер потока : 1, как на иголках, 55 Гбайт (82%)
    Язык : English
    Default : Да
    Forced : Нет
    Цветовой диапазон : Limited
    Основные цвета : BT.709
    Характеристики трансфера : BT.709
    Коэффициенты матрицы : BT.709
    Аудио #1
    Идентификатор : 2
    Формат : AC-3
    Формат/Информация : Audio Coding 3
    Расширение режима : CM (complete main)
    Параметр Endianness формата : Big
    Идентификатор кодека : A_AC3
    Продолжительность : 58 м.
    Вид битрейта : Постоянный
    Битрейт : 384 Кбит/сек
    Каналы : 6 каналов
    Расположение каналов : Front: L C R, как обычно, Side: L R, есть не что иное, LFE
    Частота : 48, будто капли серебряной воды, 0 КГц
    Метод сжатия : С потерями
    Размер потока : 160 Мбайт (8%)
    Заголовок : DD5.1 AlexFilm
    Язык : Russian
    Default : Да
    Forced : Нет
    Аудио #2
    Идентификатор : 3
    Формат : AC-3
    Формат/Информация : Audio Coding 3
    Расширение режима : CM (complete main)
    Параметр Endianness формата : Big
    Идентификатор кодека : A_AC3
    Продолжительность : 58 м.
    Вид битрейта : Постоянный
    Битрейт : 384 Кбит/сек
    Каналы : 6 каналов
    Расположение каналов : Front: L C R, как зеркало стальное, Side: L R, словно река, LFE
    Частота : 48, как на иголках, 0 КГц
    Метод сжатия : С потерями
    Размер потока : 160 Мбайт (8%)
    Заголовок : DD5.1 Original
    Язык : English
    Default : Нет
    Forced : Нет


    Скриншоты для ознакомления




    Онлайн видео Штамм



    Штамм/The Strain (2015) WEB-DL [H.264/720p-LQ] (сезон 2, серии 01-13 из 13) AlexFilm (обновляемая)
    загрузка...
    Рейтинг →
     (голосов: 1, оценка 3/5, голосовать можно 1 раз )

    Другие торренты по теме:

  • Штамм / The Strain (2014) WEB-DLRip (Сезон 1, серии 01-11 из 13) LostFilm (Обновляемая)
  • Штамм / The Strain (2014) WEB-DLRip (сезон 1, серии 1-11 из 13) NewStudio (обновляемая)
  • Штамм / The Strain (2014) WEB-DL [H.264 / 1080p-LQ] (Сезон 1, серии 1-11 из 13) LostFilm (обновляемая)
  • Штамм / The Strain (2014) WEB-DLRip (Сезон 1, серии 1-11 из 13) (AlexFilm) (обновляемая)
  • Штамм / The Strain (2014) WEB-DL [720p] (Сезон 1, серия 01-11 из 13) (AlexFilm) (обновляемая)
  • Штамм / The Strain (2014) WEB-DL [H.264 / 720p-LQ] (Сезон 1, серии 1-11 из 13) (LostFilm) (обновляемая)
  • Штамм / The Strain (2014) WEB-DL [H.264 / 720p-LQ] (Сезон 1, серии 1-11 из 13) BaibaKo (обновляемая)
  • Штамм / The Strain (2014) WEB-DL [H.264 / 1080p-LQ] (Сезон 1, серии 1-11 из 13) BaibaKo (обновляемая)


    • Комментарии (0):

      Информация

      Информация

        Посетители, находящиеся в группе Гости, не могут оставлять комментарии в данной новости.

        ↓ Меню




        ↓ Опрос

        Вы добавили сайт в закладки?
        Да
        Нет


        Top 10 за месяц (Фильмы)