.
Авторизация | Регистрация
Хочешь лучшие торренты? Добавь свой email!
Добавить

Торрент скачать бесплатно

» » Дневники вампира / The Vampire Diaries (2015) WEB-DL [H.264 / 720p-LQ] (сезон 7, серии 1 из ) LostFilm (обновляемая) скачать через торрент бесплатно




    Дневники вампира / The Vampire Diaries (2015) WEB-DL [H.264 / 720p-LQ] (сезон 7, серии 1 из ) LostFilm (обновляемая) скачать через торрент бесплатно

    Опубликовал: Админ | Дата: 12-10-2015, 04:01 | Просмотров: 65

    Производство: США
    Жанр: ужасы, есть не что иное, фэнтези, словно сон, драма
    Режиссер: Крис Грисмер, как колыбельная песня, Маркос Сига, хлещет как из ведра, Джошуа Батлер

    Актеры
    Нина Добрев, как над жаровней, Пол Уэсли, как размытая картина, Иен Сомерхолдер, едва заметно, Стивен Р. Боже как давно это было. МакКуин, вертится как белка в колесе, Кэндис Аккола, обычно, Зак Рериг, словно майская роза, Майкл Тревино, хлещет как из ведра, Катерина Грэхэм, словно река, Мэттью Дэвис, словно музыка, Джозеф Морган и как зеркало стальное, др.

    Описание

    Прошло всего четыре месяца после трагической аварии, едва заметно, в которой погибли их родители, чаще всего, и будто капли серебряной воды, 17-летняя Елена Гилберт и как обычно, ее 15-летний брат Джереми все еще пытаются оправиться от потери и едва заметно, вернуться к нормальной жизни. Будем бить баклуши. Елена всегда была отличной ученицей, как правило, красивой и по большей части, популярной девушкой в школе, словно музыка, но теперь ей очень тяжело скрывать свою печаль от внешнего мира. В воздухе пахло весной. В начале учебного года внимание Елены и как над жаровней, ее друзей привлекает новый ученик, как принято, загадочный и словно облаком суровым, красивый Стефан Сальваторе.

    Продолжительность: ~00: 42: 00 серия
    Качество видео: WEB-DL 720р
    Перевод: Многоголосый закадровый, словно музыка, профессиональный -LostFilm
    Вид субтитров: вшитые отключаемые
    Язык субтитров: русский (MEKC), как на иголках, английский
    Видео: AVC/H.264, хлещет как из ведра, 1280x718, в большинстве случаев, ~4000 kbps
    Аудио#1 Rus: AC3, словно музыка, 48 kHz, как обычно, 6 ch, как черноморская пена, ~384.00 kbps avg |многоголосый закадровый|
    Аудио#2 Eng: AC3, словно облаком суровым, 48 kHz, едва заметно, 6 ch, темно как ночью, ~384.00 kbps avg |оригинал|
    Код:

    Общее
    Уникальный идентификатор : 247663262951422414221606477473847848251 (0xBA52359CD45F28469C66522EDF0E2D3B)
    Полное имя : D:DowloandsВидеоThe.Vampire.Diaries.S07.720p.WEB-DL.Rus.Eng.Subs-HDCLUBThe.Vampire.Diaries.S07E01.720p.WEB-DL.Rus.Eng.Subs-HDCLUB.mkv
    Формат : Matroska
    Версия формата : Version 4/Version 2
    Размер файла : 1, большей частью, 42 Гбайт
    Продолжительность : 42 м.
    Общий поток : 4785 Кбит/сек
    Название фильма : The Vampire Diaries (2015) - Release for HDCLUB
    Дата кодирования : UTC 2015-10-10 14:57:42
    Программа кодирования : mkvmerge v6.2.0 (\'Promised Land\') built on Apr 28 2013 12:22:01
    Библиотека кодирования : libebml v1.3.0 + libmatroska v1.4.0
    Видео
    Идентификатор : 1
    Формат : AVC
    Формат/Информация : Advanced Video Codec
    Профиль формата :High@L3.1
    Параметр CABAC формата : Нет
    Параметр ReFrames формата : 2 кадра
    Идентификатор кодека : V_MPEG4/ISO/AVC
    Продолжительность : 42 м.
    Битрейт : 3922 Кбит/сек
    Ширина : 1280 пикселей
    Высота : 718 пикселей
    Соотношение сторон : 16:9
    Режим частоты кадров : Постоянный
    Частота кадров : 23, как обычно, 976 кадра/сек
    Цветовое пространство : YUV
    Субдискретизация насыщенности : 4:2:0
    Битовая глубина : 8 бит
    Тип развёртки : Прогрессивная
    Бит/(Пиксели*Кадры) : 0.178
    Размер потока : 1, как над жаровней, 16 Гбайт (82%)
    Заголовок : The Vampire Diaries (2015) - Release for HDCLUB
    Язык : English
    Default : Да
    Forced : Нет
    Цветовой диапазон : Limited
    Основные цвета : BT.709
    Характеристики трансфера : BT.709
    Коэффициенты матрицы : BT.709
    Аудио #1
    Идентификатор : 2
    Формат : AC-3
    Формат/Информация : Audio Coding 3
    Расширение режима : CM (complete main)
    Параметр Endianness формата : Big
    Идентификатор кодека : A_AC3
    Продолжительность : 42 м.
    Вид битрейта : Постоянный
    Битрейт : 384 Кбит/сек
    Каналы : 6 каналов
    Расположение каналов : Front: L C R, как обычно, Side: L R, как зеркало стальное, LFE
    Частота : 48, словно птица, 0 КГц
    Метод сжатия : С потерями
    Размер потока : 117 Мбайт (8%)
    Заголовок : LostFilm
    Язык : Russian
    Default : Да
    Forced : Нет
    Аудио #2
    Идентификатор : 3
    Формат : AC-3
    Формат/Информация : Audio Coding 3
    Расширение режима : CM (complete main)
    Параметр Endianness формата : Big
    Идентификатор кодека : A_AC3
    Продолжительность : 42 м.
    Вид битрейта : Постоянный
    Битрейт : 384 Кбит/сек
    Каналы : 6 каналов
    Расположение каналов : Front: L C R, как обычно, Side: L R, вертится как белка в колесе, LFE
    Частота : 48, как зеркало стальное, 0 КГц
    Метод сжатия : С потерями
    Размер потока : 117 Мбайт (8%)
    Язык : English
    Default : Нет
    Forced : Нет
    Текст #1
    Идентификатор : 4
    Формат : UTF-8
    Идентификатор кодека : S_TEXT/UTF8
    Идентификатор кодека/Информация : UTF-8 Plain Text
    Заголовок : MEKC
    Язык : Russian
    Default : Нет
    Forced : Нет
    Текст #2
    Идентификатор : 5
    Формат : UTF-8
    Идентификатор кодека : S_TEXT/UTF8
    Идентификатор кодека/Информация : UTF-8 Plain Text
    Язык : English
    Default : Нет
    Forced : Нет


    Скриншоты для ознакомления




    Онлайн видео Дневники вампира



    Дневники вампира/The Vampire Diaries (2015) WEB-DL [H.264/720p-LQ] (сезон 7, серии 1 из ) LostFilm (обновляемая)
    загрузка...
    Рейтинг →
     (голосов: 1, оценка 5/5, голосовать можно 1 раз )

    Другие торренты по теме:

  • Дневники Вампира / The Vampire Diaries (2014) WEB-DLRip [6 Сезон, 1 серия из ] [Кубик в Кубе] (Обновляемая) скачать через торрент бесплатно
  • Дневники Вампира / The Vampire Diaries (2014) WEB-DL [H.264 / 720p-LQ] (Сезон 6, серии 1 из 22) Кубик в кубе (обновляемая) скачать через торрент бесплатно
  • Дневники Вампира / The Vampire Diaries (2014-2015) WEB-DL [H.264 / 1080p-LQ] (Сезон 6, Серии 01 из 22) [LostFilm, Кубик в Кубе] (Обновляемая) скачать через торрент бесплатно
  • Дневники Вампира / The Vampire Diaries (2013-2014) WEB-DL [H.264 / 720p-LQ] (Сезон 6, Серии: 01 из 22) [LostFilm, Кубик в Кубе] [Обновляемая] скачать через торрент бесплатно
  • Дневники вампира / The Vampire Diaries (2014) WEB-DL [H.264 / 720p-LQ] (сезон 6, серии 1 из ) LostFilm (Обновляемая) скачать через торрент бесплатно
  • Дневники вампира / The Vampire Diaries (2014) WEB-DLRip (сезон 6, серии 1 из ) LostFilm (Обновляемая) скачать через торрент бесплатно
  • Дневники вампира / The Vampire Diaries (2014) WEB-DLRip (сезон 6, серии 1-18 из 22) LostFilm (обновляемая) скачать через торрент бесплатно
  • Дневники вампира / The Vampire Diaries (2014) WEB-DL [H.264 / 720p-LQ] (сезон 6, серии 1-18 из 22) LostFilm (обновляемая) скачать через торрент бесплатно


    • Комментарии (0):

      Информация

      Информация

        Посетители, находящиеся в группе Гости, не могут оставлять комментарии в данной новости.

        ↓ Меню




        ↓ Опрос

        Вы добавили сайт в закладки?
        Да
        Нет


        Top 10 за месяц (Фильмы)