.
Авторизация | Регистрация
Хочешь лучшие торренты? Добавь свой email!
Добавить

Торрент скачать бесплатно

» » Дневники вампира / The Vampire Diaries (2015) WEB-DL [H.264 / 1080p-LQ] (сезон 7, серия 01) LostFilm (обновляемая) скачать через торрент бесплатно




    Дневники вампира / The Vampire Diaries (2015) WEB-DL [H.264 / 1080p-LQ] (сезон 7, серия 01) LostFilm (обновляемая) скачать через торрент бесплатно

    Опубликовал: Админ | Дата: 12-10-2015, 04:01 | Просмотров: 64

    Производство: США
    Жанр: ужасы, фэнтези, драма
    Режиссер: Крис Грисмер, Маркос Сига, Джошуа Батлер

    Актеры
    Нина Добрев, Пол Уэсли, Иен Сомерхолдер, Стивен Р. МакКуин, Кэндис Аккола, Зак Рериг, Майкл Тревино, Катерина Грэхэм, Мэттью Дэвис, Джозеф Морган и др.

    Описание

    Прошло всего четыре месяца после трагической аварии, в которой погибли их родители, и 17-летняя Елена Гилберт и ее 15-летний брат Джереми все еще пытаются оправиться от потери и вернуться к нормальной жизни. Елена всегда была отличной ученицей, красивой и популярной девушкой в школе, но теперь ей очень тяжело скрывать свою печаль от внешнего мира. В начале учебного года внимание Елены и ее друзей привлекает новый ученик, загадочный и красивый Стефан Сальваторе.

    Продолжительность: ~00: 42: 00 серия
    Качество видео: WEB-DL
    Перевод: Многоголосый закадровый, профессиональный - LostFilm
    Вид субтитров: вшитые отключаемые
    Язык субтитров: русский (MEKC), английский
    Видео: AVC/H.264, 1917x1076 (16: 9), ~5008 kbps
    Аудио #1 Rus: AC3, 48 kHz, 6 ch, ~384.00 kbps - многоголосый закадровый
    Аудио #2 Eng: AC3, 48 kHz, 6 ch, ~384.00 kbps - оригинал
    Код:
    Общее
    Уникальный идентификатор : 249367022204404369810520111833133372586 (0xBB9A576DE51BA902843AA12CDC6C54AA)
    Полное имя : D:ФильмыThe.Vampire.Diaries.S07.WEB-DL.1080pThe.Vampire.Diaries.S07E01.WEB-DL.1080p.mkv
    Формат : Matroska
    Версия формата : Version 4/Version 2
    Размер файла : 1, 75 Гбайт
    Продолжительность : 42 м.
    Общий поток : 5893 Кбит/сек
    Дата кодирования : UTC 2015-10-11 13:37:53
    Программа кодирования : mkvmerge v8.2.0 (\'World of Adventure\') 64bit
    Библиотека кодирования : libebml v1.3.1 + libmatroska v1.4.2
    Attachements : The.Vampire.Diaries.jpg
    DURATION : 00:41:52.942000000
    NUMBER_OF_FRAMES : 849
    NUMBER_OF_BYTES : 32868
    _STATISTICS_WRITING_APP : mkvmerge v8.2.0 (\'World of Adventure\') 64bit
    _STATISTICS_WRITING_DATE_UTC : 2015-10-11 13:37:53
    _STATISTICS_TAGS : BPS DURATION NUMBER_OF_FRAMES NUMBER_OF_BYTES
    Видео
    Идентификатор : 1
    Формат : AVC
    Формат/Информация : Advanced Video Codec
    Профиль формата : High@L4
    Параметр CABAC формата : Да
    Параметр ReFrames формата : 4 кадра
    Идентификатор кодека : V_MPEG4/ISO/AVC
    Продолжительность : 42 м.
    Битрейт : 5008 Кбит/сек
    Ширина : 1916 пикселей
    Высота : 1076 пикселей
    Соотношение сторон : 16:9
    Режим частоты кадров : Постоянный
    Частота кадров : 23, 976 кадра/сек
    Цветовое пространство : YUV
    Субдискретизация насыщенности : 4:2:0
    Битовая глубина : 8 бит
    Тип развёртки : Прогрессивная
    Бит/(Пиксели*Кадры) : 0.101
    Размер потока : 1, 48 Гбайт (85%)
    Язык : English
    Default : Да
    Forced : Нет
    colour_range : Limited
    Основные цвета : BT.709
    Характеристики трансфера : BT.709
    Коэффициенты матрицы : BT.709
    Аудио #1
    Идентификатор : 2
    Формат : AC-3
    Формат/Информация : Audio Coding 3
    Расширение режима : CM (complete main)
    Параметр Endianness формата : Big
    Идентификатор кодека : A_AC3
    Продолжительность : 42 м.
    Вид битрейта : Постоянный
    Битрейт : 384 Кбит/сек
    Каналы : 6 каналов
    Расположение каналов : Front: L C R, Side: L R, LFE
    Частота : 48, 0 КГц
    Метод сжатия : С потерями
    Размер потока : 117 Мбайт (7%)
    Заголовок : LostFilm
    Язык : Russian
    Default : Да
    Forced : Нет
    Аудио #2
    Идентификатор : 3
    Формат : AC-3
    Формат/Информация : Audio Coding 3
    Расширение режима : CM (complete main)
    Параметр Endianness формата : Big
    Идентификатор кодека : A_AC3
    Продолжительность : 42 м.
    Вид битрейта : Постоянный
    Битрейт : 384 Кбит/сек
    Каналы : 6 каналов
    Расположение каналов : Front: L C R, Side: L R, LFE
    Частота : 48, 0 КГц
    Метод сжатия : С потерями
    Размер потока : 117 Мбайт (7%)
    Язык : English
    Default : Нет
    Forced : Нет
    Текст #1
    Идентификатор : 4
    Формат : UTF-8
    Идентификатор кодека : S_TEXT/UTF8
    Идентификатор кодека/Информация : UTF-8 Plain Text
    Заголовок : MEKC
    Язык : Russian
    Default : Нет
    Forced : Нет
    Текст #2
    Идентификатор : 5
    Формат : UTF-8
    Идентификатор кодека : S_TEXT/UTF8
    Идентификатор кодека/Информация : UTF-8 Plain Text
    Язык : English
    Default : Нет
    Forced : Нет


    Скриншоты для ознакомления




    Онлайн видео Дневники вампира



    Дневники вампира/The Vampire Diaries (2015) WEB-DL [H.264/1080p-LQ] (сезон 7, серия 01) LostFilm (обновляемая)
    загрузка...
    Рейтинг →
     (голосов: 1, оценка 5/5, голосовать можно 1 раз )

    Другие торренты по теме:

  • Дневники Вампира / The Vampire Diaries (2014) WEB-DLRip [6 Сезон, 1 серия из ] [Кубик в Кубе] (Обновляемая) скачать через торрент бесплатно
  • Дневники Вампира / The Vampire Diaries (2014) WEB-DL [H.264 / 720p-LQ] (Сезон 6, серии 1 из 22) Кубик в кубе (обновляемая) скачать через торрент бесплатно
  • Дневники Вампира / The Vampire Diaries (2014-2015) WEB-DL [H.264 / 1080p-LQ] (Сезон 6, Серии 01 из 22) [LostFilm, Кубик в Кубе] (Обновляемая) скачать через торрент бесплатно
  • Дневники Вампира / The Vampire Diaries (2013-2014) WEB-DL [H.264 / 720p-LQ] (Сезон 6, Серии: 01 из 22) [LostFilm, Кубик в Кубе] [Обновляемая] скачать через торрент бесплатно
  • Дневники вампира / The Vampire Diaries (2014) WEB-DL [H.264 / 720p-LQ] (сезон 6, серии 1 из ) LostFilm (Обновляемая) скачать через торрент бесплатно
  • Дневники вампира / The Vampire Diaries (2014) WEB-DLRip (сезон 6, серии 1 из ) LostFilm (Обновляемая) скачать через торрент бесплатно
  • Дневники вампира / The Vampire Diaries (2014) WEB-DLRip (сезон 6, серии 1-18 из 22) LostFilm (обновляемая) скачать через торрент бесплатно
  • Дневники вампира / The Vampire Diaries (2014) WEB-DL [H.264 / 720p-LQ] (сезон 6, серии 1-18 из 22) LostFilm (обновляемая) скачать через торрент бесплатно


    • Комментарии (0):

      Информация

      Информация

        Посетители, находящиеся в группе Гости, не могут оставлять комментарии в данной новости.

        ↓ Меню




        ↓ Опрос

        Вы добавили сайт в закладки?
        Да
        Нет


        Top 10 за месяц (Фильмы)