.
Авторизация | Регистрация
Хочешь лучшие торренты? Добавь свой email!
Добавить

Торрент скачать бесплатно

» » Доктор Кен / Dr. Ken (2015) WEB-DL [H.264 / 720p-LQ] (сезон 1, серии 1-2 из 5) BaibaKo (обновляемая) скачать через торрент бесплатно




    Доктор Кен / Dr. Ken (2015) WEB-DL [H.264 / 720p-LQ] (сезон 1, серии 1-2 из 5) BaibaKo (обновляемая) скачать через торрент бесплатно

    Опубликовал: Админ | Дата: 12-10-2015, 04:00 | Просмотров: 137

    Производство: США/ABC Studios, Davis Entertainment
    Жанр: комедия
    Режиссер: Скотт Эллис

    Актеры
    Кен Жонг, Сьюзи Накамура, Тиша Кэмпбелл, Дэйв Фоли, Джонатан Славин, Альберт Тсаи, Криста Мари Ю, Доун Дрэйк, Нина Эристави и др.

    Описание

    Сериал рассказывает о повседневной жизни доктора Кена, который пытается держать под контролем профессиональную и семейную жизнь, а также справляться с воспитанием своих детей.

    Дата мировой премьеры: 2 октября 2015
    Продолжительность: ~ 00: 21: 00 серия
    Качество видео: WEB-DL 720p
    Перевод: Многоголосый закадровый, профессиональный -BaibaKo
    Видео: AVC/H.264, 1280x718 (16: 9), ~3957
    Аудио №1 Rus: AC3, 48, 0 КГц, 6 ch, 384 kbps - многоголосый закадровый
    Аудио №2 Eng: AC3, 48, 0 КГц, 6 ch, 384 kbps - оригинал
    Код:

    Общее
    Уникальный идентификатор : 183292648550494098937739170081833562006 (0x89E4E14A7E908766AF8B06C5F08D2F96)
    Полное имя : C:UserskapulskyDesktopDr.Ken.s01e01.HD720p.WEB-DL.Rus.Eng.BaibaKo.tv.mkv
    Формат : Matroska
    Версия формата : Version 4/Version 2
    Размер файла : 740 Мбайт
    Продолжительность : 21 м.
    Общий поток : 4813 Кбит/сек
    Дата кодирования : UTC 2015-10-04 04:48:17
    Программа кодирования : mkvmerge v8.4.0 (\'A better way to fly\') 64bit
    Библиотека кодирования : libebml v1.3.1 + libmatroska v1.4.2
    DURATION : 00:21:29.344000000
    NUMBER_OF_FRAMES : 40292
    NUMBER_OF_BYTES : 61888512
    _STATISTICS_WRITING_APP : mkvmerge v8.4.0 (\'A better way to fly\') 64bit
    _STATISTICS_WRITING_DATE_UTC : 2015-10-04 04:48:17
    _STATISTICS_TAGS : BPS DURATION NUMBER_OF_FRAMES NUMBER_OF_BYTES
    Видео
    Идентификатор : 1
    Формат : AVC
    Формат/Информация : Advanced Video Codec
    Профиль формата :High@L3.1
    Параметр CABAC формата : Нет
    Параметр ReFrames формата : 2 кадра
    Идентификатор кодека : V_MPEG4/ISO/AVC
    Продолжительность : 21 м.
    Битрейт : 3957 Кбит/сек
    Ширина : 1280 пикселей
    Высота : 718 пикселей
    Соотношение сторон : 16:9
    Режим частоты кадров : Постоянный
    Частота кадров : 23, 976 кадра/сек
    Цветовое пространство : YUV
    Субдискретизация насыщенности : 4:2:0
    Битовая глубина : 8 бит
    Тип развёртки : Прогрессивная
    Бит/(Пиксели*Кадры) : 0.180
    Размер потока : 607 Мбайт (82%)
    Библиотека кодирования : x264 core 142 r2479 dd79a61
    Настройки программы : cabac=1/ref=3/deblock=1:0:0/analyse=0x3:0x113/me=hex/subme=7/psy=1/psy_rd=1.00:0.00/mixed_ref=1/me_range=16/chroma_me=1/trellis=1/8x8dct=1/cqm=0/deadzone=21, 11/fast_pskip=1/chroma_qp_offset=-2/threads=12/lookahead_threads=2/sliced_threads=0/nr=0/decimate=1/interlaced=0/bluray_compat=0/constrained_intra=0/bframes=3/b_pyramid=2/b_adapt=1/b_bias=0/direct=1/weightb=1/open_gop=0/weightp=2/keyint=240/keyint_min=24/scenecut=40/intra_refresh=0/rc_lookahead=40/rc=2pass/mbtree=1/bitrate=3957/ratetol=1.0/qcomp=0.60/qpmin=0/qpmax=69/qpstep=4/cplxblur=20.0/qblur=0.5/vbv_maxrate=17500/vbv_bufsize=17500/nal_hrd=none/filler=0/ip_ratio=1.40/aq=1:1.00
    Default : Нет
    Forced : Нет
    Цветовой диапазон : Limited
    Основные цвета : BT.709
    Характеристики трансфера : BT.709
    Коэффициенты матрицы : BT.709
    Аудио #1
    Идентификатор : 2
    Формат : AC-3
    Формат/Информация : Audio Coding 3
    Расширение режима : CM (complete main)
    Параметр Endianness формата : Big
    Идентификатор кодека : A_AC3
    Продолжительность : 21 м.
    Вид битрейта : Постоянный
    Битрейт : 384 Кбит/сек
    Каналы : 6 каналов
    Расположение каналов : Front: L C R, Side: L R, LFE
    Частота : 48, 0 КГц
    Метод сжатия : С потерями
    Размер потока : 59, 0 Мбайт (8%)
    Язык : Russian
    Default : Да
    Forced : Нет
    Аудио #2
    Идентификатор : 3
    Формат : AC-3
    Формат/Информация : Audio Coding 3
    Расширение режима : CM (complete main)
    Параметр Endianness формата : Big
    Идентификатор кодека : A_AC3
    Продолжительность : 21 м.
    Вид битрейта : Постоянный
    Битрейт : 384 Кбит/сек
    Каналы : 6 каналов
    Расположение каналов : Front: L C R, Side: L R, LFE
    Частота : 48, 0 КГц
    Метод сжатия : С потерями
    Размер потока : 59, 0 Мбайт (8%)
    Язык : English
    Default : Нет
    Forced : Нет


    Скриншоты для ознакомления




    Онлайн видео Доктор Кен



    Доктор Кен/Dr. Ken (2015) WEB-DL [H.264/720p-LQ] (сезон 1, серии 1-2 из 5) BaibaKo (обновляемая)
    загрузка...
    Рейтинг →
     (голосов: 1, оценка 4/5, голосовать можно 1 раз )

    Другие торренты по теме:

  • Раш / Натиск / Доктор Кайф / Rush (US) (2014) WEB-DL [H.264 / 720p-LQ] (Сезон 1, Серии 1-9 из 10) IDEAFILM (обновляемая) скачать через торрент бесплатно
  • Доктор Кто / Doctor Who (2014) WEB-DL [H.264 / 720p-LQ] (Сезон 8, серии 1-6 из 12) (BaibaKo) (обновляемая) скачать через торрент бесплатно
  • Доктор Плюшева / Doc McStuffins (2013-2014) WEB-DL [720p] (Сезон 02, Серии 01-23 из 23) скачать через торрент бесплатно
  • Хихикающий доктор / Dr. Giggles (1992) WEB-DL [H.264 / 720p-LQ] [AVO] скачать через торрент бесплатно
  • Доктор Кто / Doctor Who (2015) WEB-DL [H.264 / 1080p-LQ] (сезон 9, серии 0-3 из 13) BaibaKo (обновляемая) скачать через торрент бесплатно
  • Michael Giacchino - Doctor Strange / Доктор Стрэндж (Original Motion Picture Soundtrack) 2016) [FLAC|Lossless|WEB-DL|tracks]<Soundtrack>
  • Доктор Плюшева / Doc McStuffins (2013-2014) WEB-DL [720p] (Сезон 02, Серии 01-26 из 26)
  • Доктор Кто. Возвращение Доктора Мистерио / Doctor Who. The Return of Doctor Mysterio (2016) WEB-DL [H.264 / 1080p-LQ] (сезон 10, серия 0) BaibaKo


    • Комментарии (0):

      Информация

      Информация

        Посетители, находящиеся в группе Гости, не могут оставлять комментарии в данной новости.

        ↓ Меню




        ↓ Опрос

        Вы добавили сайт в закладки?
        Да
        Нет


        Top 10 за месяц (Фильмы)