.
Авторизация | Регистрация
Хочешь лучшие торренты? Добавь свой email!
Добавить

Торрент скачать бесплатно

» » Древние / Первородные / The Originals (2015) WEB-DLRip (сезон 3, серии 1 из 22) LostFilm (обновляемая) скачать через торрент бесплатно




    Древние / Первородные / The Originals (2015) WEB-DLRip (сезон 3, серии 1 из 22) LostFilm (обновляемая) скачать через торрент бесплатно

    Опубликовал: Админ | Дата: 12-10-2015, 04:00 | Просмотров: 107

    Производство: США/Bonanza Productions, My So-Called Company, Alloy Entertainment
    Жанр: ужасы, фэнтези, драма, детектив
    Режиссер: Мэттью Хатингс, Крис Грисмер, Джесси Уарн

    Актеры
    Джозеф Морган, Дэниэл Гиллис, Чарльз Майкл Дэвис, Фиби Тонкин, Клер Холт, Леа Пайпс, Даниэль Кэмпбелл, Юсуф Гейтвуд и др.

    Описание

    Первородные — спин-офф Дневников вампира, в центре которого находятся несколько основных персонажей сериала.
    Третий сезон любимого сериала начнётся с отдалившихся друг от друга Клауса и Элайджи, хотя братьям и удается наладить отношения с давно потерянной сестрой Фреей. Хейли безмерно страдает из-за мелочной мстительности Клауса, в то время, как Марсель и Давина правят городом в соответствии с новым положением дел. Ками и Винсент оказываются вовлечены в поразительную тайну, связанную с новым жителем Нового Орлеана - первым вампиром в истории, тысячу лет назад созданным семейством Майклсонов.

    Продолжительность: ~00: 42: 00 серия
    Качество видео: WEB-DLRip
    Перевод: Многоголосый закадровый, профессиональный -LostFilm
    Видео: XviD, 720x400 (16: 9), ~1155 kb/s
    Аудио Rus: MPEG Layer 3, 48, 0 kHz, 2 ch, 192 kb/s — многоголосый закадровый
    Общее
    Полное имя : D: Первородные (сезон любимого сериала 3) The Originals (2015) WEB-DLRip - LostFilmThe.Originals.S03E01.rus.LostFilm.TV.avi
    Формат : AVI
    Формат/Информация : Audio Video Interleave
    Размер файла : 414 Мбайт
    Продолжительность : 42 м.
    Режим общего битрейта : Переменный
    Общий поток : 1356 Кбит/сек
    Программа кодирования : Nandub v1.0rc2
    Библиотека кодирования : Nandub build 1853/release
    Видео
    Идентификатор : 0
    Формат : MPEG-4 Visual
    Профиль формата : Advanced Simple@L5
    Параметр BVOP формата : Нет
    Параметр QPel формата : Нет
    Параметр GMC формата : Без точки перехода
    Параметр матрицы формата : Default (H.263)
    Идентификатор кодека : XVID
    Идентификатор кодека/Подсказка : XviD
    Продолжительность : 42 м.
    Битрейт : 1155 Кбит/сек
    Ширина : 720 пикселей
    Высота : 400 пикселей
    Соотношение сторон : 16: 9
    Частота кадров : 23, 976 кадра/сек
    Цветовое пространство : YUV
    Субдискретизация насыщенности : 4: 2: 0
    Битовая глубина : 8 бит
    Тип развёртки : Прогрессивная
    Метод сжатия : С потерями
    Бит/(Пиксели*Кадры) : 0.167
    Размер потока : 353 Мбайт (85%)
    Библиотека кодирования : XviD 1.2.1 (UTC 2008-12-04)
    Аудио
    Идентификатор : 1
    Формат : MPEG Audio
    Версия формата : Version 1
    Профиль формата : Layer 3
    Режим : Joint stereo
    Расширение режима : MS Stereo
    Идентификатор кодека : 55
    Идентификатор кодека/Подсказка : MP3
    Продолжительность : 42 м.
    Вид битрейта : Переменный
    Битрейт : 192 Кбит/сек
    Каналы : 2 канала
    Частота : 48, 0 КГц
    Метод сжатия : С потерями
    Размер потока : 57, 6 Мбайт (14%)
    Выравнивание : Соединение по промежуткам
    Продолжительность промежутка : 24 мс. (0, 58 видеокадр)
    Время предзагрузки промежутка : 489 мс.
    Библиотека кодирования : LAME3.97b
    Настройки программы : -m j -V 4 -q 3 -lowpass 18.6 --abr 192


    Скриншоты для ознакомления




    Онлайн видео Древние



    Древние/Первородные/The Originals (2015) WEB-DLRip (сезон 3, серии 1 из 22) LostFilm (обновляемая)
    загрузка...
    Рейтинг →
     (голосов: 1, оценка 5/5, голосовать можно 1 раз )

    Другие торренты по теме:

  • Древние / Первородные / The Originals (2014) WEB-DLRip (сезон 2, серии 1 из ) BaibaKo (oбновляемая)
  • Древние / Первородные / The Originals (2014) WEB-DLRip (сезон 2, серии 1-2 из ) LostFilm (oбновляемая)
  • Древние / Первородные / The Originals (2014) WEB-DL [H.264 / 720p-LQ] (сезон 2, серии 1-6 из ) LostFilm (oбновляемая) скачать через торрент бесплатно
  • Древние / Первородные / The Originals (2014) WEB-DLRip (сезон 2, серии 1-19 из 22) LostFilm (oбновляемая) скачать через торрент бесплатно
  • Древние / Первородные / The Originals (2015) WEB-DLRip [H.264 / 1080p-LQ] (сезон 3, серии 1 из 22) LostFilm (обновляемая) скачать через торрент бесплатно
  • Древние / Первородные / The Originals (2014-2015) BDRemux [H.264 / 1080p] (сезон 2, дополнительные материалы) [EN / EN Sub]
  • Древние / Первородные / The Originals (2013-2014) BDRemux [H.264 / 1080p] (сезон 1, дополнительные материалы) [EN / EN Sub]
  • Древние / Первородные / The Originals (2014) BDRemux [H.264 / 1080p] (сезон 2, серии 1-22 из 22) LostFilm, Кубик в Кубе


    • Комментарии (0):

      Информация

      Информация

        Посетители, находящиеся в группе Гости, не могут оставлять комментарии в данной новости.

        ↓ Меню




        ↓ Опрос

        Вы добавили сайт в закладки?
        Да
        Нет


        Top 10 за месяц (Фильмы)