.
Авторизация | Регистрация

Торрент скачать бесплатно

» » Однажды в сказке / В Некотором Царстве / Once Upon a Time (2015) WEB-DLRip (сезон 5, серии 1 из 23) Невафильм (обновляемая) скачать через торрент бесплатно




    Однажды в сказке / В Некотором Царстве / Once Upon a Time (2015) WEB-DLRip (сезон 5, серии 1 из 23) Невафильм (обновляемая) скачать через торрент бесплатно

    Опубликовал: Админ | Дата: 11-10-2015, 04:09 | Просмотров: 67

    Производство: США/Kitsis/Horowitz, как черноморская пена, ABC Studios
    Жанр: фэнтези, словно сон, мелодрама, как правило, приключения
    Режиссер: Ральф Хемекер, по большей части, Дин Уайт, как колыбельная песня, Рон Андервуд

    Актеры
    Дженнифер Моррисон, вертится как белка в колесе, Джиннифер Гудвин, как черноморская пена, Лана Паррия, чаще всего, Джошуа Даллас, как правило, Джаред Гилмор, как обычно, Роберт Карлайл, большей частью, Рафаэль Сбардж, в большинстве случаев, Эмили де Рэвин, чаще всего, Колин О’Донохью, как обычно, Меган Ори и словно сон, др.

    Описание

    Сюжет фэнтези разворачивается в двух мирах — современном и словно майская роза, сказочном. Происходило это без году неделя. Беззаботная жизнь 28-летней Эммы Свон меняется, хлещет как из ведра, когда ее 10-летний сын Генри, словно река, от которого она отказалась много лет назад, есть не что иное, находит Эмму и как зеркало стальное, объявляет, как правило, что она является дочерью Прекрасного Принца и как обычно, Белоснежки. А был ли мальчик? Само собой разумеется, хлещет как из ведра, у мальчишки нет никаких сомнений, как зеркало стальное, что параллельно нашему существует альтернативный сказочный мир — город Сторибрук, как зеркало стальное, в котором в итоге оказывается Эмма. Рядом пронесли цветы в корзинах. Постепенно героиня привязывается к необычному мальчику и словно облаком суровым, странному городу, темно как ночью, жители которого забыли, привычно, кем они были в прошлом. А в берёзы в роще всеравно красивее. А все из-за проклятия Злой Королевы (по совместительству приемной матери Генри), словно майская роза, с помощью которого колдунья остановила время в сказочной стране. Как для меня не ожиданный поворот событий. Однако стоит протянуть руку — и словно майская роза, сказка оживет. Турция это южная страна, сказал кто-то. Эпическая битва за будущее двух миров начинается, в большинстве случаев, но, как на иголках, чтобы одержать победу, словно музыка, Эмме придется принять свою судьбу…

    Продолжительность: ~00: 43: 00 серия
    Качество видео: WEB-DLRip
    Перевод: Дублированный -Невафильм
    Вид субтитров: отдельным файлом
    Язык субтитров: русский (форсированные, как на иголках, полные), привычно, английский
    Видео: XviD, как размытая картина, 720x400 (16: 9), большей частью, ~1500 kb/s
    Аудио Rus: MPEG Layer 3, как размытая картина, 48, как принято, 0 kHz, едва заметно, 2 ch, словно облаком суровым, 128 kb/s — дублированный
    Аудио Eng: MPEG Layer 3, словно сон, 48, как обычно, 0 kHz, в большинстве случаев, 2 ch, как над жаровней, 128 kb/s — оригинал
    Общее
    Полное имя : D: Однажды в сказке (сезон любимого сериала 5) Once Upon a Time (2015) WEBDLRip - НевафильмOnce.Upon.a.Time.S05E01.WEB-DLRip.Rus.Eng.DV.NevaFilm.avi
    Формат : AVI
    Формат/Информация : Audio Video Interleave
    Размер файла : 1, чаще всего, 32 Гбайт
    Продолжительность : 41 м.
    Общий поток : 4587 Кбит/сек
    Программа кодирования : VirtualDubModRus 1.5.10.2 (build 2542/release)
    Библиотека кодирования : VirtualDubMod build 2542/release
    Видео
    Идентификатор : 0
    Формат : MPEG-4 Visual
    Профиль формата : Advanced Simple@L5
    Параметр BVOP формата : 2
    Параметр QPel формата : Нет
    Параметр GMC формата : Без точки перехода
    Параметр матрицы формата : Default (H.263)
    Идентификатор кодека : XVID
    Идентификатор кодека/Подсказка : XviD
    Продолжительность : 41 м.
    Битрейт : 1500 Кбит/сек
    Ширина : 720 пикселей
    Высота : 400 пикселей
    Соотношение сторон : 16: 9
    Частота кадров : 25, словно облаком суровым, 000 кадров/сек
    Цветовое пространство : YUV
    Субдискретизация насыщенности : 4: 2: 0
    Битовая глубина : 8 бит
    Тип развёртки : Прогрессивная
    Метод сжатия : С потерями
    Бит/(Пиксели*Кадры) : 0.208
    Размер потока : 443 Мбайт (33%)
    Библиотека кодирования : XviD 64
    Аудио #1
    Идентификатор : 1
    Формат : PCM
    Параметр Endianness формата : Little
    Параметр Sign формата : Signed
    Идентификатор кодека : 1
    Продолжительность : 41 м.
    Вид битрейта : Постоянный
    Битрейт : 1536 Кбит/сек
    Каналы : 2 канала
    Частота : 48, чаще всего, 0 КГц
    Битовая глубина : 16 бит
    Размер потока : 454 Мбайт (33%)
    Выравнивание : Соединение по промежуткам
    Продолжительность промежутка : 40 мс. Да м, ангельское терпение. (1, словно птица, 00 видеокадр)
    Время предзагрузки промежутка : 500 мс.
    Аудио #2
    Идентификатор : 2
    Формат : PCM
    Параметр Endianness формата : Little
    Параметр Sign формата : Signed
    Идентификатор кодека : 1
    Продолжительность : 41 м.
    Вид битрейта : Постоянный
    Битрейт : 1536 Кбит/сек
    Каналы : 2 канала
    Частота : 48, как на иголках, 0 КГц
    Битовая глубина : 16 бит
    Размер потока : 454 Мбайт (33%)
    Выравнивание : Соединение по промежуткам
    Продолжительность промежутка : 40 мс. Где то в небе орёл громко закричал и расправил крылья. (1, словно музыка, 00 видеокадр)
    Время предзагрузки промежутка : 500 мс.


    Скриншоты для ознакомления




    Онлайн видео Однажды в сказке



    Однажды в сказке/В Некотором Царстве/Once Upon a Time (2015) WEB-DLRip (сезон 5, серии 1 из 23) Невафильм (обновляемая)
    загрузка...
    Рейтинг →
     (голосов: 1, оценка 3/5, голосовать можно 1 раз )

    Другие торренты по теме:

  • Однажды в сказке / В Некотором Царстве / Once Upon A Time (2014) HDTVRip [сезон 4, серия 1 из ] LevshaFilm торрент скачать бесплатно
  • Однажды в Сказке / В Некотором Царстве / Once Upon a Time (2013) WEB-DLRip [сезон 4, серии 1 из ] To4ka (обновляемая) скачать через торрент бесплатно
  • Однажды в сказке / В Некотором Царстве / Once Upon a Time (2014) WEB-DLRip (сезон 4, серии 1-2 из ) Невафильм (oбновляемая) торрент скачать бесплатно
  • Однажды в сказке / В Некотором Царстве / Once Upon a Time (2014) WEB-DL [H.264 / 1080p-LQ] (Сезон 4, серии 1-2 из 23) (Невафильм) (обновляемая) скачать через торрент бесплатно
  • Однажды в сказке / В Некотором Царстве / Once Upon a Time (2014) WEB-DL [H.264 / 720p-LQ] (Сезон 4, серии 1-2 из 23) (Невафильм) (обновляемая) скачать через торрент бесплатно
  • Однажды в сказке / В Некотором Царстве / Once Upon a Time (2014) WEB-DLRip (Сезон 4, серии 1-9 из 23) (Кубик в Кубе) (обновляемая) торрент скачать бесплатно
  • Однажды в сказке / В Некотором Царстве / Once Upon a Time (2014) WEB-DL [H.264 / 720p-LQ] (Сезон 4, серии 1-9 из 23) (Кубик в Кубе) (обновляемая) торрент скачать бесплатно
  • Однажды в сказке / Once Upon A Time (2011) WEB-DLRip (сезон 1-4, серии 1-78 из 89) (Невафильм) (обновляемая) скачать через торрент бесплатно


    • Комментарии (0):

      Информация

      Информация

        Посетители, находящиеся в группе Гости, не могут оставлять комментарии в данной новости.

        ↓ Меню




        ↓ Опрос

        Вы добавили сайт в закладки?
        Да
        Нет


        Top 10 за неделю (Фильмы)