.
Авторизация | Регистрация
Хочешь лучшие торренты? Добавь свой email!
Добавить

Торрент скачать бесплатно

» » Стрела / Arrow (2015) WEB-DL [H.264 / 720p-LQ] (сезон 4, серии 1 из 23) BaibaKo (обновляемая) скачать через торрент бесплатно




    Стрела / Arrow (2015) WEB-DL [H.264 / 720p-LQ] (сезон 4, серии 1 из 23) BaibaKo (обновляемая) скачать через торрент бесплатно

    Опубликовал: Админ | Дата: 11-10-2015, 04:09 | Просмотров: 78

    Производство: США
    Жанр: боевик, по большей части, приключения, темно как ночью, криминал
    Режиссер: Дэвид Баррет, словно река, Дэвид Наттер

    Актеры
    Стивен Амелл, как черноморская пена, Эмили Бетт Рикардс, хлещет как из ведра, Кэти Кэссиди, есть не что иное, Уилла Холлэнд, словно птица, Джейми Шеридан, словно облаком суровым, Жаклин МакИннес Вуд, как обычно, Колин Сэлмон, как над жаровней, Кэтлин Гати, как размытая картина, Пол Блекторн, будто капли серебряной воды, Сюзанна Томпсон и как черноморская пена, др.

    Описание

    После спланированного кораблекрушения, вертится как белка в колесе, плейбой и привычно, миллиардер Оливер Куин пропадает и словно сон, считается погибшим в течение пяти лет, как колыбельная песня, после чего его обнаруживают живым на затерянном острове в Тихом океане. Происходило это без году неделя. Когда он возвращается домой в Старлинг-Сити, словно птица, его преданная мать Мойра, как зеркало стальное, столь любимая сестра Теа, как правило, и словно майская роза, лучший друг Томми приветствуют его дома, большей частью, но они видят, едва заметно, что Оливер изменился после испытаний на острове. В воздухе пахло весной. Хотя Оливер скрывает правду о человеке, словно музыка, которым он стал...

    Продолжительность: ~ 00: 43: 00 серия
    Качество видео: WEB-DL 720p
    Перевод: Многоголосый закадровый, словно река, профессиональный -BaibaKo
    Автор перевода: Янина Галицкая
    Озвучка: Владимир Курдов, вертится как белка в колесе, Алексей Кузнецов, словно майская роза, Артемий Мирон, привычно, Юлия Котурбаш и как размытая картина, Светлана Доманова
    Видео: AVC/H.264, темно как ночью, 1280x720 (16: 9), словно река, ~3900 Кбит/сек
    Аудио #1 Rus: AC3, словно майская роза, 6 каналов, как над жаровней, 384 Кбит/сек - (многоголосый закадровый)
    Аудио #2 Eng: AC3, привычно, 6 каналов, как колыбельная песня, 384 Кбит/сек - (оригинал)
    Полное имя : F: Arrow_s4_WEB-DL720p_BaibaKo_NNM-CLUBArrow.s04e01.HD720p.WEB-DL.Rus.Eng.BaibaKo.tv.mkv
    Формат : Matroska
    Версия формата : Version 4/Version 2
    Размер файла : 1, обычно, 39 Гбайт
    Продолжительность : 42 м.
    Общий поток : 4671 Кбит/сек
    Видео
    Идентификатор : 1
    Формат : AVC
    Формат/Информация : Advanced Video Codec
    Профиль формата : High@L3.1
    Параметр CABAC формата : Да
    Параметр ReFrames формата : 3 кадра
    Идентификатор кодека : V_MPEG4/ISO/AVC
    Продолжительность : 42 м.
    Битрейт : 3900 Кбит/сек
    Ширина : 1280 пикселей
    Высота : 720 пикселей
    Соотношение сторон : 16: 9
    Режим частоты кадров : Постоянный
    Частота кадров : 23, словно облаком суровым, 976 кадра/сек
    Цветовое пространство : YUV
    Субдискретизация насыщенности : 4: 2: 0
    Битовая глубина : 8 бит
    Тип развёртки : Прогрессивная
    Бит/(Пиксели*Кадры) : 0.177
    Размер потока : 1, чаще всего, 13 Гбайт (82%)
    Библиотека кодирования : x264 core 146 r2538M 121396c
    Настройки программы : cabac=1/ref=3/deblock=1: -2: -2/analyse=0x3: 0x133/me=hex/subme=7/psy=1/psy_rd=1, чаще всего, 00: 0, есть не что иное, 20/mixed_ref=1/me_range=16/chroma_me=1/trellis=1/8x8dct=1/cqm=0/deadzone=21, как над жаровней, 11/fast_pskip=1/chroma_qp_offset=-3/threads=18/lookahead_threads=3/sliced_threads=0/nr=0/decimate=1/interlaced=0/bluray_compat=0/constrained_intra=0/bframes=3/b_pyramid=1/b_adapt=2/b_bias=0/direct=3/weightb=1/open_gop=0/weightp=2/keyint=230/keyint_min=23/scenecut=40/intra_refresh=0/rc_lookahead=230/rc=2pass/mbtree=1/bitrate=3900/ratetol=1, как принято, 0/qcomp=0, словно река, 60/qpmin=10/qpmax=51/qpstep=4/cplxblur=20, как колыбельная песня, 0/qblur=0, словно музыка, 5/ip_ratio=1, едва заметно, 40/aq=1: 1, как обычно, 00
    Default : Да
    Forced : Нет
    Основные цвета : BT.709
    Характеристики трансфера : BT.709
    Коэффициенты матрицы : BT.709
    Аудио #1
    Идентификатор : 2
    Формат : AC-3
    Формат/Информация : Audio Coding 3
    Расширение режима : CM (complete main)
    Параметр Endianness формата : Big
    Идентификатор кодека : A_AC3
    Продолжительность : 42 м.
    Вид битрейта : Постоянный
    Битрейт : 384 Кбит/сек
    Каналы : 6 каналов
    Расположение каналов : Front: L C R, обычно, Side: L R, как обычно, LFE
    Частота : 48, словно сон, 0 КГц
    Битовая глубина : 16 бит
    Метод сжатия : С потерями
    Размер потока : 117 Мбайт (8%)
    Язык : Russian
    Default : Да
    Forced : Нет
    Аудио #2
    Идентификатор : 3
    Формат : AC-3
    Формат/Информация : Audio Coding 3
    Расширение режима : CM (complete main)
    Параметр Endianness формата : Big
    Идентификатор кодека : A_AC3
    Продолжительность : 42 м.
    Вид битрейта : Постоянный
    Битрейт : 384 Кбит/сек
    Каналы : 6 каналов
    Расположение каналов : Front: L C R, словно птица, Side: L R, в большинстве случаев, LFE
    Частота : 48, хлещет как из ведра, 0 КГц
    Битовая глубина : 16 бит
    Метод сжатия : С потерями
    Размер потока : 117 Мбайт (8%)
    Язык : English
    Default : Нет
    Forced : Нет


    Скриншоты для ознакомления




    Онлайн видео Стрела



    Стрела/Arrow (2015) WEB-DL [H.264/720p-LQ] (сезон 4, серии 1 из 23) BaibaKo (обновляемая)
    загрузка...
    Рейтинг →
     (голосов: 1, оценка 3/5, голосовать можно 1 раз )

    Другие торренты по теме:

  • Blake Neely - Стрела / Arrow (Original Television Soundtrack) (Season 1) (2014) [MP3|320 кб / с]<Soundtrack>
  • Стрела (Arrow) / (Сезон 1-3, серии 1-47 из 69) LostFilm (2012-2014) [MP4|1280x720 / 1280x718] <WEB-DL H.264> скачать через торрент бесплатно
  • Стрела / Arrow (2014-2015) WEB-DL [H.264 / 720p-LQ] [Сезон 3, Серия 1-1 (23)] [LostFilm] Обновляемая
  • Стрела / Arrow (2014-2015) WEB-DL [H.264 / 1080p-LQ] (Сезон 3, Серия 1-1 из 23) [Baibako] (Обновляемая)
  • Стрела / Arrow (2014-2015) WEB-DL [H.264 / 720p-LQ] (Сезон 3, Серия 1 из 23) [Baibako] (Обновляемая)
  • Стрела / Arrow (2012-2014) WEB-DLRip [H.264] (Сезон 1-3, серии 1-47 из ()) BaibaKo (обновляемая)
  • Стрела / Arrow (2014-2015) WEB-DL [H.264 / 1080p-LQ] (Сезон 3, Серии 1 из 23) [LostFilm] (Обновляемая) скачать через торрент бесплатно
  • Стрела / Arrow (2014) WEB-DLRip (сезон 3, серии 1 из ) Sony Sci-Fi (Обновляемая) скачать через торрент бесплатно


    • Комментарии (0):

      Информация

      Информация

        Посетители, находящиеся в группе Гости, не могут оставлять комментарии в данной новости.

        ↓ Меню




        ↓ Опрос

        Вы добавили сайт в закладки?
        Да
        Нет


        Top 10 за месяц (Фильмы)