.
Авторизация | Регистрация
Хочешь лучшие торренты? Добавь свой email!
Добавить

Торрент скачать бесплатно

» » Теория Большого Взрыва / The Big Bang Theory (2015) HDTVRip [H.264 / 720p-LQ] (сезон 9, серии 1-3 из 24) (Кураж-Бамбей) (обновляемая) скачать через торрент бесплатно




    Теория Большого Взрыва / The Big Bang Theory (2015) HDTVRip [H.264 / 720p-LQ] (сезон 9, серии 1-3 из 24) (Кураж-Бамбей) (обновляемая) скачать через торрент бесплатно

    Опубликовал: Админ | Дата: 11-10-2015, 04:09 | Просмотров: 43

    Производство: США, Chuck Lorre Productions, Warner Bros. Television.
    Жанр: комедия
    Режиссер: Марк Сендроуски, Питер Чакос, Энтони Джозеф Рич

    Актеры
    Джонни Галэки, Джим Парсонс, Кейли Куоко, Саймон Хелберг, Кунал Найяр, Майем Биалик, Мелисса Рауш, Кэрол Энн Сьюзи, Кевин Суссман, Арти Манн, Брайан Джордж, Элис Эмтер, Сара Гилберт, Джон Росс Боуи, Уил Уитон, Лори Меткаф, Верни Уотсон-Джонсон, Кристин Барански, Джошуа Малина, Кейси Сэндер, Кэти Леклерк

    Описание

    Два блестящих физика, Леонард и Шелдон, считают себя великими умами. Но их гениальность ничуть не помогает им общаться с людьми, особенно с женщинами. Всё начинает меняться, когда напротив них поселяется блондинка Пенни. Леонард начинает интересоваться ею, однако Шелдон понимает, что мечтам его друга не суждено сбыться (Вы с ней два разных биологических вида). У главных героев есть странные друзья: Говард Воловиц, любящий употреблять фразы на шести разных языках, включая русский, и Раджеш Кутрапали, который не может ни слова сказать девушкам, если не выпьет хотя бы немного алкоголя.

    Продолжительность: ~ 00: 22: 00 серия
    Качество видео: HDTVRip 720p
    Перевод: Одноголосый закадровый, профессиональный -Кураж-Бамбей
    Озвучка: Денис Колесников
    Вид субтитров: вшитые отключаемые
    Язык субтитров: русский
    Видео: AVC/H.264, 1280x720 (16: 9), ~2500 kbps
    Аудио №1 Rus: AC3, 48, 0 КГц, 2 ch, 192 kbps - одноголосый закадровый
    Аудио №2 Eng: AC3, 48, 0 КГц, 6 ch, 384 kbps - оригинал
    Код:
    Общее
    Уникальный идентификатор : 180730022649139662412684895754938066169 (0x87F756144825E953AE22E7329EF1A4F9)
    Полное имя : C:UserskapulskyDesktopTBBT (S09) 720pTBBT.S09E01.HDTV.720p.KB.[qqss44].mkv
    Формат : Matroska
    Версия формата : Version 2
    Размер файла : 461 Мбайт
    Продолжительность : 20 м.
    Общий поток : 3139 Кбит/сек
    Дата кодирования : UTC 2015-09-25 17:07:27
    Программа кодирования : mkvmerge v7.9.0 (\'Birds\') 64bit
    Библиотека кодирования : libebml v1.3.1 + libmatroska v1.4.2
    DURATION : 00:20:12.149000000
    NUMBER_OF_FRAMES : 448
    NUMBER_OF_BYTES : 24558
    _STATISTICS_WRITING_APP : mkvmerge v7.9.0 (\'Birds\') 64bit
    _STATISTICS_WRITING_DATE_UTC : 2015-09-25 17:07:27
    _STATISTICS_TAGS : BPS DURATION NUMBER_OF_FRAMES NUMBER_OF_BYTES
    Видео
    Идентификатор : 1
    Формат : AVC
    Формат/Информация : Advanced Video Codec
    Профиль формата :High@L4.1
    Параметр CABAC формата : Да
    Параметр ReFrames формата : 8 кадров
    Идентификатор кодека : V_MPEG4/ISO/AVC
    Продолжительность : 20 м.
    Битрейт : 2500 Кбит/сек
    Ширина : 1280 пикселей
    Высота : 720 пикселей
    Соотношение сторон : 16:9
    Режим частоты кадров : Постоянный
    Частота кадров : 23, 976 кадра/сек
    Цветовое пространство : YUV
    Субдискретизация насыщенности : 4:2:0
    Битовая глубина : 8 бит
    Тип развёртки : Прогрессивная
    Бит/(Пиксели*Кадры) : 0.113
    Размер потока : 367 Мбайт (80%)
    Библиотека кодирования : x264 core 148 r2597 e86f3a1
    Настройки программы : cabac=1/ref=8/deblock=1:-2:-2/analyse=0x3:0x113/me=umh/subme=9/psy=1/psy_rd=1.00:0.00/mixed_ref=1/me_range=24/chroma_me=1/trellis=1/8x8dct=1/cqm=0/deadzone=21, 11/fast_pskip=0/chroma_qp_offset=-2/threads=18/lookahead_threads=2/sliced_threads=0/nr=0/decimate=1/interlaced=0/bluray_compat=0/constrained_intra=0/bframes=5/b_pyramid=2/b_adapt=2/b_bias=0/direct=3/weightb=1/open_gop=0/weightp=2/keyint=250/keyint_min=23/scenecut=40/intra_refresh=0/rc_lookahead=50/rc=crf/mbtree=1/crf=18.0/qcomp=0.60/qpmin=0/qpmax=69/qpstep=4/ip_ratio=1.40/aq=1:1.00
    Язык : English
    Default : Нет
    Forced : Нет
    DURATION : 00:20:30.897000000
    NUMBER_OF_FRAMES : 29512
    NUMBER_OF_BYTES : 394071480
    _STATISTICS_WRITING_APP : mkvmerge v7.9.0 (\'Birds\') 64bit
    _STATISTICS_WRITING_DATE_UTC : 2015-09-25 17:07:27
    _STATISTICS_TAGS : BPS DURATION NUMBER_OF_FRAMES NUMBER_OF_BYTES
    Аудио #1
    Идентификатор : 2
    Формат : AC-3
    Формат/Информация : Audio Coding 3
    Расширение режима : CM (complete main)
    Параметр Endianness формата : Big
    Идентификатор кодека : A_AC3
    Продолжительность : 20 м.
    Вид битрейта : Постоянный
    Битрейт : 192 Кбит/сек
    Каналы : 2 канала
    Расположение каналов : Front: L R
    Частота : 48, 0 КГц
    Метод сжатия : С потерями
    Размер потока : 28, 2 Мбайт (6%)
    Язык : Russian
    Default : Да
    Forced : Нет
    Аудио #2
    Идентификатор : 3
    Формат : AC-3
    Формат/Информация : Audio Coding 3
    Расширение режима : CM (complete main)
    Параметр Endianness формата : Big
    Идентификатор кодека : A_AC3
    Продолжительность : 20 м.
    Вид битрейта : Постоянный
    Битрейт : 384 Кбит/сек
    Каналы : 6 каналов
    Расположение каналов : Front: L C R, Side: L R, LFE
    Частота : 48, 0 КГц
    Метод сжатия : С потерями
    Задержка видео : 100 мс.
    Размер потока : 56, 4 Мбайт (12%)
    Язык : English
    Default : Нет
    Forced : Нет
    Текст
    Идентификатор : 4
    Формат : UTF-8
    Идентификатор кодека : S_TEXT/UTF8
    Идентификатор кодека/Информация : UTF-8 Plain Text
    Язык : Russian
    Default : Нет
    Forced : Нет


    Скриншоты для ознакомления




    Онлайн видео Теория Большого Взрыва



    Теория Большого Взрыва/The Big Bang Theory (2015) HDTVRip [H.264/720p-LQ] (сезон 9, серии 1-3 из 24) (Кураж-Бамбей) (обновляемая)
    загрузка...
    Рейтинг →
     (голосов: 1, оценка 4/5, голосовать можно 1 раз )

    Другие торренты по теме:

  • Теория Большого Взрыва / The Big Bang Theory (2014) HDTVRip, [H.264 / 720p-LQ], (Сезон 8, Серии 1-2 из 24) [Прыг-Скок] (обновляемая)
  • Теория Большого Взрыва / The Big Bang Theory (2014) HDTVRip [H.264 / 720p-LQ] (Сезон 8, серии 1-2 из 24) [En En, Ru Sub] (обновляемая)
  • Теория большого взрыва / The Big Bang Theory (2014) WEB-DL [H.264 / 1080p-LQ] (сезон 8, серии 1-2 из 24) Кураж-Бамбей (обновляемая)
  • Теория Большого Взрыва / The Big Bang Theory (2014) WEB-DL [H.264 / 1080p-LQ] (Сезон 8, Серия 1-2 из 24) [Кураж-Бамбей] (Обновляемая)
  • Теория Большого Взрыва / The Big Bang Theory (2014) WEB-DL [H.264 / 720p-LQ] (Сезон 8, серии 1-3 из 24) (Кураж-Бамбей) (обновляемая) скачать через торрент бесплатно
  • Теория большого взрыва / The Big Bang Theory (2014) WEB-DL [H.264 / 720p-LQ] [Сезон 8, Серии 1-7 из 24] (DekinStudio) (обновляемая) скачать через торрент бесплатно
  • Теория большого взрыва / The Big Bang Theory (2013) BDRemux [1080p] (сезон 7, серии 1-24 из 24) [Кураж-Бамбей]
  • Теория большого взрыва / The Big Bang Theory (2010) BDRemux [1080p] (сезон 3, серии 1-23 из 23) (Кураж-Бамбей, СТС) скачать через торрент бесплатно


    • Комментарии (0):

      Информация

      Информация

        Посетители, находящиеся в группе Гости, не могут оставлять комментарии в данной новости.

        ↓ Меню




        ↓ Опрос

        Вы добавили сайт в закладки?
        Да
        Нет


        Top 10 за месяц (Фильмы)