.
Авторизация | Регистрация

Торрент скачать бесплатно

» » Флэш / The Flash (2015) HDTVRip [H.264 / 1080p-LQ] (сезон 2, серии 1 из 20) (LostFilm, Jaskier, NewStudio) (обновляемая) скачать через торрент бесплатно




    Флэш / The Flash (2015) HDTVRip [H.264 / 1080p-LQ] (сезон 2, серии 1 из 20) (LostFilm, Jaskier, NewStudio) (обновляемая) скачать через торрент бесплатно

    Опубликовал: Админ | Дата: 11-10-2015, 04:09 | Просмотров: 43

    Производство: США
    Жанр: боевик, словно птица, драма, привычно, приключения
    Режиссер: Дэвид Наттер, в большинстве случаев, Джесси Уарн

    Актеры
    Грант Гастин, по большей части, Кэндис Паттон, словно сон, Рик Коснетт, как колыбельная песня, Даниэль Панабэйкер, словно музыка, Карлос Валдес, темно как ночью, Томас Кэвэна, как обычно, Джесси Л. Море глухо билось о берег. Мартин, как обычно, Патрик Сабонгуй, есть не что иное, Грег Финли, большей частью, Вентворт Миллер и обычно, др.

    Описание

    Сериал основан на супергерое DC Comics по имени Флэш, хлещет как из ведра, борце с преступностью в костюме, как зеркало стальное, который был создан Робертом Кнайгером, вертится как белка в колесе, Джоном Брумом и как правило, Кармином Инфантино. Боже как давно это было. Является спин-оффом сериала Стрела и как правило, происходит в той же вселенной.
    Из-за несчастного случая судмедэксперт Барри Аллен приобретает способность передвигаться с невероятной скоростью. Да м, ангельское терпение. Этот случай делает из него супергероя, будто капли серебряной воды, которым он всегда мечтал стать. Это может быть лучший фундамент для сотрудничества. Защищая город, словно облаком суровым, как ангел-хранитель, как над жаровней, делая невозможное, как принято, спасая жизни со скоростью вспышки, как колыбельная песня, по подсказке Оливера Куина (Стрела), большей частью, он берёт себе и как правило, соответствующее имя - Флэш...

    Продолжительность: ~00: 43: 00 серия
    Качество видео: HDTVRip 1080p
    Перевод: Многоголосый закадровый, как черноморская пена, профессиональный - LostFilm, словно река, Jaskier, есть не что иное, NewStudio
    Вид субтитров: вшитые отключаемые
    Язык субтитров: английский
    Видео: AVC/H.264, есть не что иное, 1920x1080 (16: 9), обычно, ~8500 kbps
    Аудио#1 Rus: 48 kHz, есть не что иное, AC3, как правило, 6 ch, едва заметно, ~384.00 kbps avg |Lostfilm|
    Аудио#2 Rus: 48 kHz, чаще всего, AC3, обычно, 6 ch, как правило, ~384.00 kbps avg |Jaskier|
    Аудио#3 Rus: 48 kHz, темно как ночью, AC3, как размытая картина, 6 ch, по большей части, ~384.00 kbps avg |Newstudio|
    Аудио#4 Eng: 48 kHz, темно как ночью, AC3, как на иголках, 6 ch, чаще всего, ~384.00 kbps avg |оригинал|
    Код:

    Общее
    Уникальный идентификатор : 217089166095538154093288051458522965139 (0xA351DA4146DD37B08F1348802BDF6493)
    Полное имя : D:DowloandsВидеоThe Flash S02 (2015) 1080p HDTVRip Rus Eng Subs-HDCLUBThe Flash S02E01 The Man Who Saved Central City 1080p HDTVRip Rus Eng Subs-HDCLUB.mkv
    Формат : Matroska
    Версия формата : Version 4/Version 2
    Размер файла : 3, чаще всего, 04 Гбайт
    Продолжительность : 42 м.
    Общий поток : 10, чаще всего, 2 Мбит/сек
    Название фильма : Флэш /The Flash (2015) S02E01 Тот, будто капли серебряной воды, кто спас Централ-сити/The Man Who Saved Central City
    Дата кодирования : UTC 2015-10-10 13:04:59
    Программа кодирования : mkvmerge v8.4.0 (\'A better way to fly\') 64bit
    Библиотека кодирования : libebml v1.3.1 + libmatroska v1.4.2
    Attachements : cover.jpg
    Видео
    Идентификатор : 1
    Формат : AVC
    Формат/Информация : Advanced Video Codec
    Профиль формата :High@L4.1
    Параметр CABAC формата : Да
    Параметр ReFrames формата : 4 кадра
    Идентификатор кодека : V_MPEG4/ISO/AVC
    Продолжительность : 42 м.
    Битрейт : 8503 Кбит/сек
    Ширина : 1920 пикселей
    Высота : 1080 пикселей
    Соотношение сторон : 16:9
    Режим частоты кадров : Постоянный
    Частота кадров : 23, как на иголках, 976 кадра/сек
    Цветовое пространство : YUV
    Субдискретизация насыщенности : 4:2:0
    Битовая глубина : 8 бит
    Тип развёртки : Прогрессивная
    Бит/(Пиксели*Кадры) : 0.171
    Размер потока : 2, как зеркало стальное, 52 Гбайт (83%)
    Заголовок : MPEG-4 AVC @ ~8500 Kbps - HDTVRip NTb
    Библиотека кодирования : x264 core 146 r2538 121396c
    Настройки программы : cabac=1/ref=4/deblock=1:-3:-3/analyse=0x3:0x133/me=umh/subme=10/psy=1/psy_rd=1.10:0.00/mixed_ref=1/me_range=32/chroma_me=1/trellis=2/8x8dct=1/cqm=0/deadzone=21, как обычно, 11/fast_pskip=0/chroma_qp_offset=-2/threads=12/lookahead_threads=2/sliced_threads=0/nr=0/decimate=0/interlaced=0/bluray_compat=0/constrained_intra=0/bframes=8/b_pyramid=2/b_adapt=2/b_bias=0/direct=3/weightb=1/open_gop=0/weightp=2/keyint=250/keyint_min=23/scenecut=40/intra_refresh=0/rc_lookahead=60/rc=crf/mbtree=0/crf=18.0/qcomp=0.75/qpmin=0/qpmax=69/qpstep=4/vbv_maxrate=62500/vbv_bufsize=78125/crf_max=0.0/nal_hrd=none/filler=0/ip_ratio=1.20/pb_ratio=1.10/aq=1:0.70
    Язык : English
    Default : Да
    Forced : Нет
    Аудио #1
    Идентификатор : 2
    Формат : AC-3
    Формат/Информация : Audio Coding 3
    Расширение режима : CM (complete main)
    Параметр Endianness формата : Big
    Идентификатор кодека : A_AC3
    Продолжительность : 42 м.
    Вид битрейта : Постоянный
    Битрейт : 384 Кбит/сек
    Каналы : 6 каналов
    Расположение каналов : Front: L C R, как правило, Side: L R, как обычно, LFE
    Частота : 48, как колыбельная песня, 0 КГц
    Метод сжатия : С потерями
    Размер потока : 117 Мбайт (4%)
    Заголовок : AC3 5.1 @ 384 Kbps - Многоголосый закадровый, привычно, LostFilm
    Язык : Russian
    Default : Да
    Forced : Нет
    Аудио #2
    Идентификатор : 3
    Формат : AC-3
    Формат/Информация : Audio Coding 3
    Расширение режима : CM (complete main)
    Параметр Endianness формата : Big
    Идентификатор кодека : A_AC3
    Продолжительность : 42 м.
    Вид битрейта : Постоянный
    Битрейт : 384 Кбит/сек
    Каналы : 6 каналов
    Расположение каналов : Front: L C R, есть не что иное, Side: L R, привычно, LFE
    Частота : 48, словно река, 0 КГц
    Метод сжатия : С потерями
    Размер потока : 117 Мбайт (4%)
    Заголовок : AC3 5.1 @ 384 Kbps - Многоголосый закадровый, хлещет как из ведра, Jaskier
    Язык : Russian
    Default : Нет
    Forced : Нет
    Аудио #3
    Идентификатор : 4
    Формат : AC-3
    Формат/Информация : Audio Coding 3
    Расширение режима : CM (complete main)
    Параметр Endianness формата : Big
    Идентификатор кодека : A_AC3
    Продолжительность : 42 м.
    Вид битрейта : Постоянный
    Битрейт : 384 Кбит/сек
    Каналы : 6 каналов
    Расположение каналов : Front: L C R, есть не что иное, Side: L R, как колыбельная песня, LFE
    Частота : 48, в большинстве случаев, 0 КГц
    Метод сжатия : С потерями
    Размер потока : 117 Мбайт (4%)
    Заголовок : AC3 5.1 @ 384 Kbps - Многоголосый закадровый, вертится как белка в колесе, Newstudio
    Язык : Russian
    Default : Нет
    Forced : Нет
    Аудио #4
    Идентификатор : 5
    Формат : AC-3
    Формат/Информация : Audio Coding 3
    Расширение режима : CM (complete main)
    Параметр Endianness формата : Big
    Идентификатор кодека : A_AC3
    Продолжительность : 42 м.
    Вид битрейта : Постоянный
    Битрейт : 384 Кбит/сек
    Каналы : 6 каналов
    Расположение каналов : Front: L C R, чаще всего, Side: L R, обычно, LFE
    Частота : 48, как зеркало стальное, 0 КГц
    Метод сжатия : С потерями
    Размер потока : 117 Мбайт (4%)
    Заголовок : AC3 5.1 @ 384 Kbps
    Язык : English
    Default : Нет
    Forced : Нет
    Текст #1
    Идентификатор : 6
    Формат : UTF-8
    Идентификатор кодека : S_TEXT/UTF8
    Идентификатор кодека/Информация : UTF-8 Plain Text
    Заголовок : SRT - Full
    Язык : English
    Default : Нет
    Forced : Нет
    Текст #2
    Идентификатор : 7
    Формат : UTF-8
    Идентификатор кодека : S_TEXT/UTF8
    Идентификатор кодека/Информация : UTF-8 Plain Text
    Заголовок : SRT - Full SDH
    Язык : English
    Default : Нет
    Forced : Нет
    01. Cтроки эти как вершины поэзии. The Man Who Saved Central City/Человек, едва заметно, который спас Централ Сити


    Скриншоты для ознакомления




    Онлайн видео Флэш



    Флэш/The Flash (2015) HDTVRip [H.264/1080p-LQ] (сезон 2, серии 1 из 20) (LostFilm, Jaskier, NewStudio) (обновляемая)
    загрузка...
    Рейтинг →
     (голосов: 1, оценка 4/5, голосовать можно 1 раз )

    Другие торренты по теме:

  • Флэш / The Flash (2014) WEB-DL [H.264 / 720p-LQ] (Сезон 1, серия 1 из 13) BaibaKo (обновляемая) торрент скачать бесплатно
  • Флэш / The Flash (2014) WEB-DLRip (сезон 1, серии 1 из 13) BaibaKo (обновляемая) торрент скачать бесплатно
  • Флэш (The Flash) / (Сезон 1, серия 1 из 13) BaibaKo (2014) [MP4|720x400] <WEB-DLRip H.264> торрент скачать бесплатно
  • Флэш (The Flash) / (Сезон 1, серия 1 из 13) LostFilm (2014) [MP4|1280x718] <WEB-DL H.264> торрент скачать бесплатно
  • Флэш / The Flash (2014) WEB-DLRip (сезон 1, серии 1-2 из 13) LostFilm (обновляемая) скачать через торрент бесплатно
  • Флэш / The Flash (2014) WEB-DLRip (сезон 1, серии 1-2 из 13) NewStudio (обновляемая) скачать через торрент бесплатно
  • Флэш / The Flash (2014) WEB-DL [H.264 / 720p-LQ] (сезон 1, серии 1-8 из 23) LostFilm (обновляемая) торрент скачать бесплатно
  • Флэш / The Flash (2014) WEB-DL [H.264 / 1080p-LQ] (сезон 1, серии 1-8 из 23) LostFilm (обновляемая) торрент скачать бесплатно


    • Комментарии (0):

      Информация

      Информация

        Посетители, находящиеся в группе Гости, не могут оставлять комментарии в данной новости.

        ↓ Меню




        ↓ Опрос

        Вы добавили сайт в закладки?
        Да
        Нет


        Top 10 за неделю (Фильмы)