.
Авторизация | Регистрация
Хочешь лучшие торренты? Добавь свой email!
Добавить

Торрент скачать бесплатно

» » Сверхъестественное / Supernatural (2015) HDTVRip (сезон 11, серии 1 из 23) [EN / RU, EN Sub] (обновляемая) скачать через торрент бесплатно




    Сверхъестественное / Supernatural (2015) HDTVRip (сезон 11, серии 1 из 23) [EN / RU, EN Sub] (обновляемая) скачать через торрент бесплатно

    Опубликовал: Админ | Дата: 10-10-2015, 04:00 | Просмотров: 119

    Производство: США
    Жанр: ужасы, хлещет как из ведра, фэнтези, словно сон, триллер, как колыбельная песня, драма
    Режиссер: Эрик Крипке

    Актеры
    Джаред Падалеки, чаще всего, Дженсен Эклс, будто капли серебряной воды, Джим Бивер, как обычно, Миша Коллинз, словно облаком суровым, Марк Шеппард, как обычно, Марк Пеллегрино, привычно, Женевьев Падалеки, есть не что иное, Кэти Кэссиди, едва заметно, Джеймс Патрик Стюарт, есть не что иное, Саманта Феррис и словно птица, др.

    Описание

    Сериал рассказывает о приключениях братьев Сэма и словно птица, Дина Винчестеров, как на иголках, которые путешествуют по Соединённым Штатам на чёрном автомобиле Chevrolet Impala 1967 года, как размытая картина, расследуют паранормальные явления, как на иголках, многие из которых основаны на американских городских легендах и как черноморская пена, фольклоре, чаще всего, и в большинстве случаев, сражаются с порождениями зла, вертится как белка в колесе, такими как демоны и как правило, призраки.

    Продолжительность: ~00: 42: 00 серия
    Качество видео: HDTVRip
    Перевод: отсутствует
    Язык: английский
    Вид субтитров: отдельным файлом
    Язык субтитров: русский, в большинстве случаев, английский
    Видео: Xvid, темно как ночью, 720x400 (16: 9), как на иголках, ~1190 Kbps
    Аудио: MP3, как черноморская пена, 2 ch, как правило, 192 Kbps, как принято, CBR
    Код:

    General
    Complete name : D:SupernaturalSupernatural 11 ENGSupernatural.S11E01.avi
    Format : AVI
    Format/Info : Audio Video Interleave
    File size : 422 MiB
    Duration : 42mn 25s
    Overall bit rate : 1 391 Kbps
    Video
    ID : 0
    Format : MPEG-4 Visual
    Format profile : Advanced Simple@L5
    Format settings, по большей части, BVOP : 2
    Format settings, словно река, QPel : No
    Format settings, едва заметно, GMC : No warppoints
    Format settings, вертится как белка в колесе, Matrix : Default (MPEG)
    Codec ID : XVID
    Codec ID/Hint : XviD
    Duration : 42mn 25s
    Bit rate : 1 190 Kbps
    Width : 720 pixels
    Height : 400 pixels
    Display aspect ratio : 16:9
    Frame rate : 23.976 fps
    Color space : YUV
    Chroma subsampling : 4:2:0
    Bit depth : 8 bits
    Scan type : Progressive
    Compression mode : Lossy
    Bits/(Pixel*Frame) : 0.172
    Stream size : 361 MiB (86%)
    Writing library : XviD 73
    Audio
    ID : 1
    Format : MPEG Audio
    Format version : Version 1
    Format profile : Layer 3
    Mode : Joint stereo
    Mode extension : MS Stereo
    Codec ID : 55
    Codec ID/Hint : MP3
    Duration : 42mn 25s
    Bit rate mode : Constant
    Bit rate : 192 Kbps
    Channel(s) : 2 channels
    Sampling rate : 48.0 KHz
    Compression mode : Lossy
    Stream size : 58.3 MiB (14%)
    Alignment : Aligned on interleaves
    Interleave, словно майская роза, duration : 42 ms (1.00 video frame)
    Interleave, как правило, preload duratio : 504 ms
    Writing library : LAME3.98.2


    Скриншоты для ознакомления




    Онлайн видео Сверхъестественное



    Сверхъестественное/Supernatural (2015) HDTVRip (сезон 11, серии 1 из 23) [EN/RU, EN Sub] (обновляемая)
    загрузка...
    Рейтинг →
     (голосов: 1, оценка 4/5, голосовать можно 1 раз )

    Другие торренты по теме:

  • Сверхъестественное / Supernatural (2014) WEB-DLRip [720p] (сезон 10, серии 1 из ) LostFilm (oбновляемая)
  • Сверхъестественное / Supernatural (2014-2015) WEB-DLRip [H.264 / 1080p-LQ] (Сезон 10, серии 1 из 23) LostFilm (oбновляемая) скачать через торрент бесплатно
  • Сверхъестественное / Supernatural (2014) WEB-DLRip (сезон 10, серии 1 из ) NewStudio + NovaFiLM (oбновляемая) скачать через торрент бесплатно
  • Сверхъестественное / Supernatural (2014-2015) WEB-DL [H.264 / 1080p-LQ] (Сезон 10, серии 1 из 23) LostFilm (Обновляемая)
  • Сверхъестественное / Supernatural (2014) HDTVRip (Сезон 10, 1-2 серия из 23) [DreamRecords] (Обновляемая)
  • Сверхъестественное / Supernatural (2014) WEB-DLRip (сезон 10, серии 1-2 из ) BaibaKo (oбновляемая) скачать через торрент бесплатно
  • Сверхъестественное / Supernatural (2014-2015) HDTVRip (Сезон 10, серии 0-2 из 23) [EN EN, RU Sub] (Обновляемая) скачать через торрент бесплатно
  • Сверхъестественное / Supernatural (2014) WEB-DLRip (сезон 10, серии 1-2 из ) LostFilm (oбновляемая) скачать через торрент бесплатно


    • Комментарии (0):

      Информация

      Информация

        Посетители, находящиеся в группе Гости, не могут оставлять комментарии в данной новости.

        ↓ Меню




        ↓ Опрос

        Вы добавили сайт в закладки?
        Да
        Нет


        Top 10 за месяц (Фильмы)