.
Авторизация | Регистрация
Хочешь лучшие торренты? Добавь свой email!
Добавить

Торрент скачать бесплатно

» » На зов скорби / Les Revenants (2015) HDTV [H.264 / 720p-LQ] (сезон 2, серия 1 из 8) (AlexFilm) (обновляемая) скачать через торрент бесплатно




    На зов скорби / Les Revenants (2015) HDTV [H.264 / 720p-LQ] (сезон 2, серия 1 из 8) (AlexFilm) (обновляемая) скачать через торрент бесплатно

    Опубликовал: Админ | Дата: 10-10-2015, 04:00 | Просмотров: 129

    Производство: Франция
    Жанр: триллер, драма
    Режиссер: Фабрис Гобер, Фридерик Мерму

    Актеры
    Фредерик Пьеро, Самир Гесми, Гийом Гуи, Жан-Франсуа Сивадье, Аликс Пуасон, Дженна Тиам, Анн Косиньи, Клотильда Эсме, Селин Саллетт, Грегори Гадебуа, Пьер Перрье, Яра Пиларц, Сванн Намботин, Ана Жирардо и др.

    Описание

    В небольшой альпийской деревушке растерянные люди пытаются вернуться домой. Они ещё не знают, что мертвы уже несколько лет. Вернувшиеся полны решимости вернуть себе место в мире живых. Но, похоже, воскресли не только мирные жители. Их возврат совпадает с серией жестоких убийств, похожих на дело рук серийного убийцы из прошлого. Самое интересное в это истории, что об этом Евросоюз ничего не знал. И на этом нарушения в естественном ходе вещей не заканчиваются...

    Релиз от: AlexFilm
    Продолжительность: ~ 00: 52: 00 серия
    Качество видео: HDTV 720p
    Перевод: Профессиональный многоголосый закадровый -AlexFilm
    Озвучка: Анастасия Флигина, Татьяна Манетина, Сергей Пономарёв, Александр Дасевич, Михаил Суслов
    Автор перевода: Vipere
    Формат: MKV
    Видео: AVC/H.264, 1280x712 (16: 9), 25 fps, ~2720 Kbps
    Аудио #1: AC3, 384 kbps, 6 ch, 48 kHz - русский многоголосый закадровый
    Аудио #2: AC3, 192 kbps, 2 ch, 48 kHz - французский
    Код:
    Общее
    Les Revenants - На зов скорби. Сезон 2. AlexFilm. 720pLes.Revenants.s02e01.HDTVRip.720p.Rus.Fre.AlexFilm.mkv
    Формат : Matroska
    Версия формата : Version 4/Version 2
    Размер файла : 1, 20 Гбайт
    Продолжительность : 51 м.
    Общий поток : 3363 Кбит/сек
    Название фильма : Les Revenants 2x01 @ AlexFilm
    Дата кодирования : UTC 2015-10-08 15:13:44
    Программа кодирования : mkvmerge v7.1.0 (\'Good Love\') 64bit built on Jul 27 2014 13:06:55
    Библиотека кодирования : libebml v1.3.0 + libmatroska v1.4.1
    Видео
    Идентификатор : 1
    Формат : AVC
    Формат/Информация : Advanced Video Codec
    Профиль формата :High@L4.1
    Параметр CABAC формата : Да
    Параметр ReFrames формата : 9 кадров
    Идентификатор кодека : V_MPEG4/ISO/AVC
    Продолжительность : 51 м.
    Битрейт : 2720 Кбит/сек
    Ширина : 1280 пикселей
    Высота : 712 пикселей
    Соотношение сторон : 16:9
    Режим частоты кадров : Постоянный
    Частота кадров : 25, 000 кадров/сек
    Цветовое пространство : YUV
    Субдискретизация насыщенности : 4:2:0
    Битовая глубина : 8 бит
    Тип развёртки : Прогрессивная
    Бит/(Пиксели*Кадры) : 0.119
    Размер потока : 998 Мбайт (81%)
    Заголовок : Les.Revenants.S02E01.PROPER.FRENCH.720p.HDTV.x264-PoLY
    Библиотека кодирования : x264 core 148 r2597 e86f3a1
    Настройки программы : cabac=1/ref=9/deblock=1:-3:-3/analyse=0x3:0x133/me=umh/subme=10/psy=1/psy_rd=1.00:0.00/mixed_ref=1/me_range=32/chroma_me=1/trellis=2/8x8dct=1/cqm=0/deadzone=21, 11/fast_pskip=0/chroma_qp_offset=-2/threads=12/lookahead_threads=1/sliced_threads=0/nr=0/decimate=0/interlaced=0/bluray_compat=0/constrained_intra=0/bframes=6/b_pyramid=2/b_adapt=2/b_bias=0/direct=3/weightb=1/open_gop=0/weightp=2/keyint=250/keyint_min=25/scenecut=40/intra_refresh=0/rc_lookahead=64/rc=crf/mbtree=0/crf=18.0/qcomp=0.65/qpmin=0/qpmax=69/qpstep=4/vbv_maxrate=62500/vbv_bufsize=78125/crf_max=0.0/nal_hrd=none/filler=0/ip_ratio=1.40/pb_ratio=1.30/aq=3:0.90
    Язык : French
    Default : Да
    Forced : Да
    Цветовой диапазон : Limited
    Основные цвета : BT.709
    Характеристики трансфера : BT.709
    Коэффициенты матрицы : BT.709
    Аудио #1
    Идентификатор : 2
    Формат : AC-3
    Формат/Информация : Audio Coding 3
    Расширение режима : CM (complete main)
    Параметр Endianness формата : Big
    Идентификатор кодека : A_AC3
    Продолжительность : 51 м.
    Вид битрейта : Постоянный
    Битрейт : 384 Кбит/сек
    Каналы : 6 каналов
    Расположение каналов : Front: L C R, Side: L R, LFE
    Частота : 48, 0 КГц
    Метод сжатия : С потерями
    Размер потока : 141 Мбайт (11%)
    Заголовок : DD5.1 AlexFilm
    Язык : Russian
    Default : Да
    Forced : Нет
    Аудио #2
    Идентификатор : 3
    Формат : AC-3
    Формат/Информация : Audio Coding 3
    Расширение режима : CM (complete main)
    Параметр Endianness формата : Big
    Идентификатор кодека : A_AC3
    Продолжительность : 51 м.
    Вид битрейта : Постоянный
    Битрейт : 192 Кбит/сек
    Каналы : 2 канала
    Расположение каналов : Front: L R
    Частота : 48, 0 КГц
    Метод сжатия : С потерями
    Размер потока : 70, 4 Мбайт (6%)
    Заголовок : DD5.1 Original
    Язык : French
    Default : Нет
    Forced : Нет


    Скриншоты для ознакомления




    Онлайн видео На зов скорби



    На зов скорби/Les Revenants (2015) HDTV [H.264/720p-LQ] (сезон 2, серия 1 из 8) (AlexFilm) (обновляемая)
    загрузка...
    Рейтинг →
     (голосов: 1, оценка 5/5, голосовать можно 1 раз )

    Другие торренты по теме:

  • На зов скорби / Les Revenants (2015) HDTVRip (сезон 2, серия 1 из 8) (AlexFilm) (обновляемая) скачать через торрент бесплатно


    • Комментарии (0):

      Информация

      Информация

        Посетители, находящиеся в группе Гости, не могут оставлять комментарии в данной новости.

        ↓ Меню




        ↓ Опрос

        Вы добавили сайт в закладки?
        Да
        Нет


        Top 10 за месяц (Фильмы)