.
Авторизация | Регистрация
Хочешь лучшие торренты? Добавь свой email!
Добавить

Торрент скачать бесплатно

» » Стрела / Arrow (2015) WEB-DL [H.264 / 720p-LQ] (сезон 4, серии 1 из 23) NewStudio (обновляемая) скачать через торрент бесплатно




    Стрела / Arrow (2015) WEB-DL [H.264 / 720p-LQ] (сезон 4, серии 1 из 23) NewStudio (обновляемая) скачать через торрент бесплатно

    Опубликовал: Админ | Дата: 10-10-2015, 04:00 | Просмотров: 62

    Производство: США
    Жанр: боевик, большей частью, приключения, привычно, криминал
    Режиссер: Дэвид Баррет, как правило, Дэвид Наттер

    Актеры
    Стивен Амелл, чаще всего, Эмили Бетт Рикардс, как на иголках, Кэти Кэссиди, как обычно, Уилла Холлэнд, в большинстве случаев, Джейми Шеридан, темно как ночью, Жаклин МакИннес Вуд, вертится как белка в колесе, Колин Сэлмон, словно птица, Кэтлин Гати, в большинстве случаев, Пол Блекторн, словно река, Сюзанна Томпсон и как на иголках, др.

    Описание

    После спланированного кораблекрушения, будто капли серебряной воды, плейбой и словно птица, миллиардер Оливер Куин пропадает и как над жаровней, считается погибшим в течение пяти лет, словно майская роза, после чего его обнаруживают живым на затерянном острове в Тихом океане. Самое интересное в это истории, что об этом Железный человек ничего не знал. Когда он возвращается домой в Старлинг-Сити, как размытая картина, его преданная мать Мойра, словно облаком суровым, столь любимая сестра Теа, словно музыка, и как черноморская пена, лучший друг Томми приветствуют его дома, как принято, но они видят, хлещет как из ведра, что Оливер изменился после испытаний на острове. С этими ребятами каши не сваришь. Хотя Оливер скрывает правду о человеке, как на иголках, которым он стал...

    Продолжительность: ~ 00: 43: 00 серия
    Качество видео: WEB-DL 720p
    Перевод: Многоголосый закадровый, хлещет как из ведра, профессиональный -NewStudio
    Автор перевода: Алексей Матвеев
    Видео: AVC/H.264, словно музыка, 1280x718 (16: 9), как над жаровней, ~3883 Кбит/сек
    Аудио #1 Rus: AC3, как черноморская пена, 6 каналов, едва заметно, 384 Кбит/сек - (многоголосый закадровый)
    Аудио #2 Eng: AC3, есть не что иное, 6 каналов, словно музыка, 384 Кбит/сек - (оригинал)
    Полное имя : F: Arrow_s4_WEB-DL720p_NewStudio_NNM-CLUBArrow..s04e01.720p.WEBDL.NewStudio.TV.mkv
    Формат : Matroska
    Версия формата : Version 4/Version 2
    Размер файла : 1, словно сон, 41 Гбайт
    Продолжительность : 42 м.
    Общий поток : 4746 Кбит/сек
    Дата кодирования : UTC 2015-10-08 21: 12: 41
    Программа кодирования : mkvmerge v8.3.0 (\'Over the Horizon\') 64bit
    Библиотека кодирования : libebml v1.3.1 + libmatroska v1.4.2
    DURATION : 00: 42: 28.832000000
    NUMBER_OF_FRAMES : 79651
    NUMBER_OF_BYTES : 122343936
    _STATISTICS_WRITING_APP : mkvmerge v8.3.0 (\'Over the Horizon\') 64bit
    _STATISTICS_WRITING_DATE_UTC : 2015-10-08 21: 12: 41
    _STATISTICS_TAGS : BPS DURATION NUMBER_OF_FRAMES NUMBER_OF_BYTES
    Видео
    Идентификатор : 1
    Формат : AVC
    Формат/Информация : Advanced Video Codec
    Профиль формата : High@L3.1
    Параметр CABAC формата : Нет
    Параметр ReFrames формата : 2 кадра
    Идентификатор кодека : V_MPEG4/ISO/AVC
    Продолжительность : 42 м.
    Битрейт : 3883 Кбит/сек
    Ширина : 1280 пикселей
    Высота : 718 пикселей
    Соотношение сторон : 16: 9
    Режим частоты кадров : Постоянный
    Частота кадров : 23, будто капли серебряной воды, 976 кадра/сек
    Цветовое пространство : YUV
    Субдискретизация насыщенности : 4: 2: 0
    Битовая глубина : 8 бит
    Тип развёртки : Прогрессивная
    Бит/(Пиксели*Кадры) : 0.176
    Размер потока : 1, едва заметно, 15 Гбайт (82%)
    Язык : English
    Default : Да
    Forced : Нет
    Основные цвета : BT.709
    Характеристики трансфера : BT.709
    Коэффициенты матрицы : BT.709
    Аудио #1
    Идентификатор : 2
    Формат : AC-3
    Формат/Информация : Audio Coding 3
    Расширение режима : CM (complete main)
    Параметр Endianness формата : Big
    Идентификатор кодека : A_AC3
    Продолжительность : 42 м.
    Вид битрейта : Постоянный
    Битрейт : 384 Кбит/сек
    Каналы : 6 каналов
    Расположение каналов : Front: L C R, как над жаровней, Side: L R, словно река, LFE
    Частота : 48, как над жаровней, 0 КГц
    Битовая глубина : 16 бит
    Метод сжатия : С потерями
    Размер потока : 117 Мбайт (8%)
    Язык : Russian
    Default : Да
    Forced : Нет
    Аудио #2
    Идентификатор : 3
    Формат : AC-3
    Формат/Информация : Audio Coding 3
    Расширение режима : CM (complete main)
    Параметр Endianness формата : Big
    Идентификатор кодека : A_AC3
    Продолжительность : 42 м.
    Вид битрейта : Постоянный
    Битрейт : 384 Кбит/сек
    Каналы : 6 каналов
    Расположение каналов : Front: L C R, есть не что иное, Side: L R, как колыбельная песня, LFE
    Частота : 48, как зеркало стальное, 0 КГц
    Битовая глубина : 16 бит
    Метод сжатия : С потерями
    Размер потока : 117 Мбайт (8%)
    Язык : English
    Default : Нет
    Forced : Нет


    Скриншоты для ознакомления




    Онлайн видео Стрела



    Стрела/Arrow (2015) WEB-DL [H.264/720p-LQ] (сезон 4, серии 1 из 23) NewStudio (обновляемая)
    загрузка...
    Рейтинг →
     (голосов: 1, оценка 5/5, голосовать можно 1 раз )

    Другие торренты по теме:

  • Blake Neely - Стрела / Arrow (Original Television Soundtrack) (Season 1) (2014) [MP3|320 кб / с]<Soundtrack>
  • Стрела (Arrow) / (Сезон 1-3, серии 1-47 из 69) LostFilm (2012-2014) [MP4|1280x720 / 1280x718] <WEB-DL H.264> скачать через торрент бесплатно
  • Стрела / Arrow (2014-2015) WEB-DL [H.264 / 720p-LQ] [Сезон 3, Серия 1-1 (23)] [LostFilm] Обновляемая
  • Стрела / Arrow (2014-2015) WEB-DL [H.264 / 1080p-LQ] (Сезон 3, Серия 1-1 из 23) [Baibako] (Обновляемая)
  • Стрела / Arrow (2014-2015) WEB-DL [H.264 / 720p-LQ] (Сезон 3, Серия 1 из 23) [Baibako] (Обновляемая)
  • Стрела / Arrow (2012-2014) WEB-DLRip [H.264] (Сезон 1-3, серии 1-47 из ()) BaibaKo (обновляемая)
  • Стрела / Arrow (2014-2015) WEB-DL [H.264 / 1080p-LQ] (Сезон 3, Серии 1 из 23) [LostFilm] (Обновляемая) скачать через торрент бесплатно
  • Стрела / Arrow (2014) WEB-DLRip (сезон 3, серии 1 из ) Sony Sci-Fi (Обновляемая) скачать через торрент бесплатно


    • Комментарии (0):

      Информация

      Информация

        Посетители, находящиеся в группе Гости, не могут оставлять комментарии в данной новости.

        ↓ Меню




        ↓ Опрос

        Вы добавили сайт в закладки?
        Да
        Нет


        Top 10 за месяц (Фильмы)