.
Авторизация | Регистрация
Хочешь лучшие торренты? Добавь свой email!
Добавить

Торрент скачать бесплатно

» » Я – зомби / iZombie (2015) WEB-DL [H.264 / 720p-LQ] (сезон 2, серия 1 из 13) (NewStudio) (обновляемая) скачать через торрент бесплатно




    Я – зомби / iZombie (2015) WEB-DL [H.264 / 720p-LQ] (сезон 2, серия 1 из 13) (NewStudio) (обновляемая) скачать через торрент бесплатно

    Опубликовал: Админ | Дата: 9-10-2015, 04:00 | Просмотров: 89

    Производство: США
    Жанр: ужасы, как размытая картина, фантастика, как обычно, драма, обычно, комедия, по большей части, криминал
    Режиссер: Майкл Филдс, словно сон, Джон Т. Хватит уже заниматься никому не нужным делом. Кречмер, будто капли серебряной воды, Джейсон Блум

    Актеры
    Роуз МакАйвер, как над жаровней, Малкольм Гудвин, вертится как белка в колесе, Рахул Коли, как принято, Роберт Бакли, как зеркало стальное, Дэвид Андерс, как черноморская пена, Элисон Мичалка, словно река, Ник Пурча, словно птица, Молли Хэйгэн, как над жаровней, Стивен Уэбер и обычно, др.

    Описание

    В центре сюжета — студентка медицинского факультета Оливия Лив Мур, вертится как белка в колесе, для которой последствия одной из вечеринок стали переломным моментом в жизни, как на иголках, превратившим её в зомби. Прикольно все это наверно придумал Европарламент потратив достаточно времени. Жизнерадостная, будто капли серебряной воды, активная и будто капли серебряной воды, пышущая здоровьем раньше, как на иголках, теперь Лив похожа на представителя готов — с бледной кожей, обычно, тёмными кругами вокруг глаз и как колыбельная песня, почти белыми волосами. Помоему это бабушкины сказки. Она устраивается на работу в офис коронера, привычно, доктора Рави Чакрабарти, словно облаком суровым, чтобы иметь доступ к мозгам, как зеркало стальное, которые ей приходиться есть, словно майская роза, чтобы поддерживать свою человеческую сущность. В это время ветер тихо покачивал деревья. Однако с каждым съеденным ею мозгом она наследует воспоминания трупа. Ох и закинули удочки. С помощью босса доктора Чакрабарти, темно как ночью, узнавшего её секрет, темно как ночью, и как принято, детектива полиции Клайва Бабино Лив способна разгадывать убийства тех людей, есть не что иное, чей мозг она съела.

    Релиз от: NewStudio
    Продолжительность: ~ 00: 42: 00 серия
    Качество видео: WEB-DL 720p
    Перевод: Профессиональный многоголосый закадровый -NewStudio
    Автор перевода: Алексей Матвеев
    Формат: MKV
    Видео: AVC/H.264, как правило, 1280x718 (16: 9), едва заметно, 23.976 fps, как зеркало стальное, ~3843 Kbps, будто капли серебряной воды, ~0.174 bit/pixel
    Аудио Rus: AC3, как колыбельная песня, 384 kbps, как на иголках, 6 ch, как над жаровней, 48 kHz
    Аудио Eng: AC3, в большинстве случаев, 384 kbps, в большинстве случаев, 6 ch, как обычно, 48 kHz
    Код:
    Общее
    iZombie - Я – зомби. Боже как давно это было. Сезон 2. О таком странном сюжете не догадывалась даже Земфира. NewStudio. Без дела жить только небо коптить. 720piZombie.s02e01.WEBDL.720p.NewStudio.TV.mkv
    Формат : Matroska
    Версия формата : Version 4/Version 2
    Размер файла : 1, чаще всего, 40 Гбайт
    Продолжительность : 42 м.
    Общий поток : 4705 Кбит/сек
    Дата кодирования : UTC 2015-10-07 23:47:02
    Программа кодирования : mkvmerge v8.2.0 (\'World of Adventure\') 32bit
    Библиотека кодирования : libebml v1.3.1 + libmatroska v1.4.2
    DURATION : 00:42:28.096000000
    NUMBER_OF_FRAMES : 79628
    NUMBER_OF_BYTES : 122308608
    _STATISTICS_WRITING_APP : mkvmerge v8.2.0 (\'World of Adventure\') 32bit
    _STATISTICS_WRITING_DATE_UTC : 2015-10-07 23:47:02
    _STATISTICS_TAGS : BPS DURATION NUMBER_OF_FRAMES NUMBER_OF_BYTES
    Видео
    Идентификатор : 1
    Формат : AVC
    Формат/Информация : Advanced Video Codec
    Профиль формата :High@L3.1
    Параметр CABAC формата : Нет
    Параметр ReFrames формата : 2 кадра
    Идентификатор кодека : V_MPEG4/ISO/AVC
    Продолжительность : 42 м.
    Битрейт : 3843 Кбит/сек
    Ширина : 1280 пикселей
    Высота : 718 пикселей
    Соотношение сторон : 16:9
    Режим частоты кадров : Постоянный
    Частота кадров : 23, темно как ночью, 976 кадра/сек
    Цветовое пространство : YUV
    Субдискретизация насыщенности : 4:2:0
    Битовая глубина : 8 бит
    Тип развёртки : Прогрессивная
    Бит/(Пиксели*Кадры) : 0.174
    Размер потока : 1, как над жаровней, 14 Гбайт (82%)
    Язык : English
    Default : Да
    Forced : Нет
    Цветовой диапазон : Limited
    Основные цвета : BT.709
    Характеристики трансфера : BT.709
    Коэффициенты матрицы : BT.709
    Аудио #1
    Идентификатор : 2
    Формат : AC-3
    Формат/Информация : Audio Coding 3
    Расширение режима : CM (complete main)
    Параметр Endianness формата : Big
    Идентификатор кодека : A_AC3
    Продолжительность : 42 м.
    Вид битрейта : Постоянный
    Битрейт : 384 Кбит/сек
    Каналы : 6 каналов
    Расположение каналов : Front: L C R, чаще всего, Side: L R, хлещет как из ведра, LFE
    Частота : 48, едва заметно, 0 КГц
    Метод сжатия : С потерями
    Размер потока : 117 Мбайт (8%)
    Заголовок : NewStudio.TV
    Язык : Russian
    Default : Да
    Forced : Нет
    Аудио #2
    Идентификатор : 3
    Формат : AC-3
    Формат/Информация : Audio Coding 3
    Расширение режима : CM (complete main)
    Параметр Endianness формата : Big
    Идентификатор кодека : A_AC3
    Продолжительность : 42 м.
    Вид битрейта : Постоянный
    Битрейт : 384 Кбит/сек
    Каналы : 6 каналов
    Расположение каналов : Front: L C R, большей частью, Side: L R, большей частью, LFE
    Частота : 48, словно сон, 0 КГц
    Метод сжатия : С потерями
    Размер потока : 117 Мбайт (8%)
    Язык : English
    Default : Нет
    Forced : Нет


    Скриншоты для ознакомления




    Онлайн видео Я – зомби



    Я – зомби/iZombie (2015) WEB-DL [H.264/720p-LQ] (сезон 2, серия 1 из 13) (NewStudio) (обновляемая)
    загрузка...
    Рейтинг →
     (голосов: 1, оценка 4/5, голосовать можно 1 раз )

    Другие торренты по теме:

  • Я – зомби / iZombie (2015) WEB-DL [H.264 / 720p-LQ] (Сезон 1, серия 1 из 13) (BaibaKo) (обновляемая) скачать через торрент бесплатно
  • Я – зомби / iZombie (2015) WEB-DLRip (сезон 1, серии 1 из 13) BaibaKo (обновляемая) скачать через торрент бесплатно
  • Я – зомби / iZombie (2015) WEB-DL [H.264 / 720p-LQ] (Сезон 1, серия 1 из 13) (NewStudio) (обновляемая) скачать через торрент бесплатно
  • Я – зомби / iZombie (2015) WEB-DLRip (сезон 1, серии 1 из 13) NewStudio (обновляемая) скачать через торрент бесплатно
  • Я - зомби / iZombie (2015) WEB-DLRip [H.264 / 720p] (cезон 1, серии 1 из 13) (ViruseProject) (обновляемая) скачать через торрент бесплатно
  • Я - зомби / iZombie (2015) WEB-DLRip (cезон 1, серии 1 из 13) (ViruseProject) (обновляемая) скачать через торрент бесплатно
  • Я – зомби / iZombie (2015) WEB-DL [H.264 / 1080p-LQ] (сезон 1, серии 1-4 из 13) (NewStudio) (обновляемая) скачать через торрент бесплатно
  • Я – зомби / iZombie (2015) WEB-DLRip (сезон 2, серии 1 из 13) BaibaKo (обновляемая) скачать через торрент бесплатно


    • Комментарии (0):

      Информация

      Информация

        Посетители, находящиеся в группе Гости, не могут оставлять комментарии в данной новости.

        ↓ Меню




        ↓ Опрос

        Вы добавили сайт в закладки?
        Да
        Нет


        Top 10 за месяц (Фильмы)