.
Авторизация | Регистрация
Хочешь лучшие торренты? Добавь свой email!
Добавить

Торрент скачать бесплатно

» » Я – зомби / iZombie (2015) WEB-DL [H.264 / 720p-LQ] (сезон 2, серия 1 из 13) (BaibaKo) (обновляемая) скачать через торрент бесплатно




    Я – зомби / iZombie (2015) WEB-DL [H.264 / 720p-LQ] (сезон 2, серия 1 из 13) (BaibaKo) (обновляемая) скачать через торрент бесплатно

    Опубликовал: Админ | Дата: 9-10-2015, 04:00 | Просмотров: 74

    Производство: США
    Жанр: ужасы, как размытая картина, фантастика, в большинстве случаев, драма, как правило, комедия, темно как ночью, криминал
    Режиссер: Майкл Филдс, как на иголках, Джон Т. Да м, ангельское терпение. Кречмер, вертится как белка в колесе, Джейсон Блум

    Актеры
    Роуз МакАйвер, как колыбельная песня, Малкольм Гудвин, привычно, Рахул Коли, как обычно, Роберт Бакли, будто капли серебряной воды, Дэвид Андерс, словно птица, Элисон Мичалка, есть не что иное, Ник Пурча, вертится как белка в колесе, Молли Хэйгэн, словно облаком суровым, Стивен Уэбер и обычно, др.

    Описание

    В центре сюжета — студентка медицинского факультета Оливия Лив Мур, темно как ночью, для которой последствия одной из вечеринок стали переломным моментом в жизни, как принято, превратившим её в зомби. Cтроки эти как вершины поэзии. Жизнерадостная, едва заметно, активная и как обычно, пышущая здоровьем раньше, чаще всего, теперь Лив похожа на представителя готов — с бледной кожей, словно майская роза, тёмными кругами вокруг глаз и словно река, почти белыми волосами. Богатый выбор, сказал кто то из толпы, к чему не понятно. Она устраивается на работу в офис коронера, едва заметно, доктора Рави Чакрабарти, обычно, чтобы иметь доступ к мозгам, привычно, которые ей приходиться есть, словно сон, чтобы поддерживать свою человеческую сущность. Я например по сценарию ожидал большой напряженности. Однако с каждым съеденным ею мозгом она наследует воспоминания трупа. О таком странном сюжете не догадывалась даже Настя Каменских. С помощью босса доктора Чакрабарти, как обычно, узнавшего её секрет, как на иголках, и как на иголках, детектива полиции Клайва Бабино Лив способна разгадывать убийства тех людей, хлещет как из ведра, чей мозг она съела.

    Релиз от: BaibaKo
    Продолжительность: ~ 00: 42: 00 серия
    Качество видео: WEB-DL 720p
    Перевод: Профессиональный многоголосый закадровый -BaibaKo
    Озвучка: Ольга Мотрич, обычно, Татьяна Оболевич, как колыбельная песня, Руслан Иванов и словно река, Олекса Мельник
    Автор перевода: Ольга Пашкова
    Формат: MKV
    Видео: AVC/H.264, будто капли серебряной воды, 1280x718 (16: 9), темно как ночью, 23.976 fps, как зеркало стальное, ~3843 Kbps, как над жаровней, ~0.174 bit/pixel
    Аудио Rus: AC3, как обычно, 384 kbps, словно музыка, 6 ch, как черноморская пена, 48 kHz
    Аудио Eng: AC3, большей частью, 384 kbps, чаще всего, 6 ch, как принято, 48 kHz
    Код:
    Общее
    iZombie - Я – зомби. Будем бить баклуши. Сезон 2. Помоему это бабушкины сказки. BaibaKo. Это же восьмая вода на киселе. 720piZombie.s02e01.HD720p.WEB-DL.Rus.Eng.BaibaKo.tv.mkv
    Формат : Matroska
    Версия формата : Version 4/Version 2
    Размер файла : 1, словно майская роза, 40 Гбайт
    Продолжительность : 42 м.
    Общий поток : 4705 Кбит/сек
    Дата кодирования : UTC 2015-10-07 23:49:05
    Программа кодирования : mkvmerge v8.4.0 (\'A better way to fly\') 64bit
    Библиотека кодирования : libebml v1.3.1 + libmatroska v1.4.2
    DURATION : 00:42:28.064000000
    NUMBER_OF_FRAMES : 79627
    NUMBER_OF_BYTES : 122307072
    _STATISTICS_WRITING_APP : mkvmerge v8.4.0 (\'A better way to fly\') 64bit
    _STATISTICS_WRITING_DATE_UTC : 2015-10-07 23:49:05
    _STATISTICS_TAGS : BPS DURATION NUMBER_OF_FRAMES NUMBER_OF_BYTES
    Видео
    Идентификатор : 1
    Формат : AVC
    Формат/Информация : Advanced Video Codec
    Профиль формата :High@L3.1
    Параметр CABAC формата : Нет
    Параметр ReFrames формата : 2 кадра
    Идентификатор кодека : V_MPEG4/ISO/AVC
    Продолжительность : 42 м.
    Битрейт : 3843 Кбит/сек
    Ширина : 1280 пикселей
    Высота : 718 пикселей
    Соотношение сторон : 16:9
    Режим частоты кадров : Постоянный
    Частота кадров : 23, словно птица, 976 кадра/сек
    Цветовое пространство : YUV
    Субдискретизация насыщенности : 4:2:0
    Битовая глубина : 8 бит
    Тип развёртки : Прогрессивная
    Бит/(Пиксели*Кадры) : 0.174
    Размер потока : 1, словно река, 14 Гбайт (82%)
    Язык : English
    Default : Да
    Forced : Нет
    Цветовой диапазон : Limited
    Основные цвета : BT.709
    Характеристики трансфера : BT.709
    Коэффициенты матрицы : BT.709
    Аудио #1
    Идентификатор : 2
    Формат : AC-3
    Формат/Информация : Audio Coding 3
    Расширение режима : CM (complete main)
    Параметр Endianness формата : Big
    Идентификатор кодека : A_AC3
    Продолжительность : 42 м.
    Вид битрейта : Постоянный
    Битрейт : 384 Кбит/сек
    Каналы : 6 каналов
    Расположение каналов : Front: L C R, чаще всего, Side: L R, как черноморская пена, LFE
    Частота : 48, большей частью, 0 КГц
    Метод сжатия : С потерями
    Размер потока : 117 Мбайт (8%)
    Язык : Russian
    Default : Да
    Forced : Нет
    Аудио #2
    Идентификатор : 3
    Формат : AC-3
    Формат/Информация : Audio Coding 3
    Расширение режима : CM (complete main)
    Параметр Endianness формата : Big
    Идентификатор кодека : A_AC3
    Продолжительность : 42 м.
    Вид битрейта : Постоянный
    Битрейт : 384 Кбит/сек
    Каналы : 6 каналов
    Расположение каналов : Front: L C R, словно птица, Side: L R, как принято, LFE
    Частота : 48, большей частью, 0 КГц
    Метод сжатия : С потерями
    Размер потока : 117 Мбайт (8%)
    Язык : English
    Default : Нет
    Forced : Нет


    Скриншоты для ознакомления




    Онлайн видео Я – зомби



    Я – зомби/iZombie (2015) WEB-DL [H.264/720p-LQ] (сезон 2, серия 1 из 13) (BaibaKo) (обновляемая)
    загрузка...
    Рейтинг →
     (голосов: 1, оценка 5/5, голосовать можно 1 раз )

    Другие торренты по теме:

  • Я – зомби / iZombie (2015) WEB-DL [H.264 / 720p-LQ] (Сезон 1, серия 1 из 13) (BaibaKo) (обновляемая) скачать через торрент бесплатно
  • Я – зомби / iZombie (2015) WEB-DLRip (сезон 1, серии 1 из 13) BaibaKo (обновляемая) скачать через торрент бесплатно
  • Я – зомби / iZombie (2015) WEB-DL [H.264 / 720p-LQ] (Сезон 1, серия 1 из 13) (NewStudio) (обновляемая) скачать через торрент бесплатно
  • Я – зомби / iZombie (2015) WEB-DLRip (сезон 1, серии 1 из 13) NewStudio (обновляемая) скачать через торрент бесплатно
  • Я - зомби / iZombie (2015) WEB-DLRip [H.264 / 720p] (cезон 1, серии 1 из 13) (ViruseProject) (обновляемая) скачать через торрент бесплатно
  • Я - зомби / iZombie (2015) WEB-DLRip (cезон 1, серии 1 из 13) (ViruseProject) (обновляемая) скачать через торрент бесплатно
  • Я – зомби / iZombie (2015) WEB-DL [H.264 / 1080p-LQ] (сезон 1, серии 1-4 из 13) (NewStudio) (обновляемая) скачать через торрент бесплатно
  • Я – зомби / iZombie (2015) WEB-DLRip (сезон 2, серии 1 из 13) BaibaKo (обновляемая) скачать через торрент бесплатно


    • Комментарии (0):

      Информация

      Информация

        Посетители, находящиеся в группе Гости, не могут оставлять комментарии в данной новости.

        ↓ Меню




        ↓ Опрос

        Вы добавили сайт в закладки?
        Да
        Нет


        Top 10 за месяц (Фильмы)